<?xml version="1.0" standalone="no"?>
<!DOCTYPE svg PUBLIC "-//W3C//DTD SVG 1.1//EN" "http://www.w3.org/Graphics/SVG/1.1/DTD/svg11.dtd" >
<svg xmlns="http://www.w3.org/2000/svg">
<metadata>Generated by IcoMoon</metadata>
<defs>
<font id="icomoon" horiz-adv-x="1024">
<font-face units-per-em="1024" ascent="960" descent="-64" />
<missing-glyph horiz-adv-x="1024" />
<glyph unicode="&#x20;" horiz-adv-x="512" d="" />
<glyph unicode="&#xe900;" glyph-name="add-location" d="M288 64h448q32 0 32-32t-32-32h-448q-32 0-32 32t32 32zM800 544c0 159.058-128.942 288-288 288s-288-128.942-288-288v0c0-118.144 94.528-272.128 288-456.576 193.472 184.448 288 338.432 288 456.576zM512 0c-234.688 213.312-352 394.688-352 544 0 194.404 157.596 352 352 352s352-157.596 352-352v0c0-149.312-117.312-330.688-352-544zM544 576h96c17.673 0 32-14.327 32-32s-14.327-32-32-32v0h-96v-96c0-17.673-14.327-32-32-32s-32 14.327-32 32v0 96h-96c-17.673 0-32 14.327-32 32s14.327 32 32 32v0h96v96c0 17.673 14.327 32 32 32s32-14.327 32-32v0z" />
<glyph unicode="&#xe901;" glyph-name="aim" d="M512 64c212.077 0 384 171.923 384 384s-171.923 384-384 384v0c-212.077 0-384-171.923-384-384s171.923-384 384-384v0zM512 0c-247.424 0-448 200.576-448 448s200.576 448 448 448v0c247.424 0 448-200.576 448-448s-200.576-448-448-448v0zM512 864c17.673 0 32-14.327 32-32v0-192c0-17.673-14.327-32-32-32s-32 14.327-32 32v0 192c0 17.673 14.327 32 32 32v0zM512 288c17.673 0 32-14.327 32-32v0-192c0-17.673-14.327-32-32-32s-32 14.327-32 32v0 192c0 17.673 14.327 32 32 32v0zM96 448c0 17.673 14.327 32 32 32v0h192c17.673 0 32-14.327 32-32s-14.327-32-32-32v0h-192c-17.673 0-32 14.327-32 32v0zM672 448c0 17.673 14.327 32 32 32v0h192c17.673 0 32-14.327 32-32s-14.327-32-32-32v0h-192c-17.673 0-32 14.327-32 32v0z" />
<glyph unicode="&#xe902;" glyph-name="alarm-clock" d="M512 128c176.731 0 320 143.269 320 320s-143.269 320-320 320v0c-176.731 0-320-143.269-320-320s143.269-320 320-320v0zM512 64c-212.077 0-384 171.923-384 384s171.923 384 384 384v0c212.077 0 384-171.923 384-384s-171.923-384-384-384v0zM292.288 135.424l55.424-32-48-83.136c-5.611-9.736-15.962-16.184-27.818-16.184-17.673 0-32 14.327-32 32 0 5.966 1.633 11.55 4.475 16.331l-0.081-0.147zM731.712 135.424l-55.424-32 48-83.136c5.611-9.736 15.962-16.184 27.818-16.184 17.673 0 32 14.327 32 32 0 5.966-1.633 11.55-4.475 16.331l0.081-0.147zM512 448h160c17.673 0 32-14.327 32-32s-14.327-32-32-32v0h-192c-17.673 0-32 14.327-32 32v0 224c0 17.673 14.327 32 32 32s32-14.327 32-32v0zM90.496 647.744c-16.719 24.879-26.684 55.511-26.684 88.47 0 88.366 71.634 160 160 160 32.975 0 63.621-9.975 89.083-27.073l-0.575 0.364-46.848-46.848c-12.102 5.914-26.333 9.373-41.373 9.373-53.019 0-96-42.981-96-96 0-15.039 3.458-29.271 9.623-41.942l-0.25 0.57-46.912-46.912zM925.76 647.744c16.688 24.863 26.634 55.467 26.634 88.394 0 88.366-71.634 160-160 160-32.927 0-63.531-9.946-88.971-26.998l0.577 0.364 46.848-46.848c12.102 5.914 26.333 9.373 41.373 9.373 53.019 0 96-42.981 96-96 0-15.039-3.458-29.271-9.623-41.942l0.25 0.57z" />
<glyph unicode="&#xe903;" glyph-name="apple" d="M599.872 756.224c13.72 3.555 29.471 5.596 45.699 5.596 6.58 0 13.082-0.336 19.489-0.991l-0.805 0.067 2.624-0.128c31.168-1.024 51.2-4.096 79.488-16.32 37.632-16.128 74.496-45.056 111.488-89.344 96.384-115.264 82.752-372.8-34.752-521.728-7.68-9.728-32-41.6-30.72-39.936-9.991-13.236-19.845-24.896-30.286-35.997l0.206 0.221c-31.232-32.576-65.28-49.216-110.080-50.048-31.36-0.64-53.568 5.312-84.288 18.752l-6.528 2.88c-20.992 9.216-30.592 11.904-47.296 11.904-18.112 0-28.608-2.88-51.136-12.672l-6.464-2.816c-28.416-12.224-48.32-18.048-76.16-19.2-74.112-2.752-116.928 38.080-180.672 132.16-96.64 142.080-132.608 349.312-55.040 486.4 46.272 81.92 129.92 133.632 220.672 135.040 32.832 0.576 60.288-6.848 99.648-22.72 27.136-10.88 34.752-13.76 37.376-14.272 16.256 20.16 27.776 36.992 34.56 50.24 13.568 26.304 27.2 59.968 40.704 100.8 4.367 12.847 16.323 21.926 30.4 21.926 17.694 0 32.038-14.344 32.038-32.038 0-3.617-0.599-7.094-1.704-10.338l0.067 0.226c-12.608-37.888-25.408-70.4-38.528-97.664zM548.352 678.144c-14.528-17.792-31.808-37.376-51.904-58.816-5.856-6.238-14.154-10.124-23.36-10.124-17.68 0-32.012 14.332-32.012 32.012 0 8.474 3.292 16.179 8.668 21.905l-0.016-0.017 12.288 13.248c-28.032 11.2-61.248 26.688-95.68 26.112-70.4-1.088-135.296-41.6-171.648-105.792-73.088-129.28-18.688-320.832 52.608-425.664 34.816-51.328 76.352-108.992 130.944-106.944 52.48 2.112 72.32 34.688 135.872 34.688s81.28-34.688 136.96-33.536c56.448 1.088 75.776 39.040 126.848 103.872 107.904 136.768 107.904 362.752 35.776 449.088-72.192 86.272-124.672 84.096-151.68 85.12-41.472 4.288-81.6-12.544-113.664-25.152z" />
<glyph unicode="&#xe904;" glyph-name="arrow-down" d="M831.872 619.136l-319.872-311.808-319.872 311.808c-5.509 5.385-13.055 8.708-21.376 8.708s-15.867-3.323-21.382-8.714l0.006 0.006c-5.396-5.29-8.74-12.654-8.74-20.8s3.345-15.51 8.735-20.795l0.005-0.005 340.288-331.776c5.76-5.619 13.643-9.085 22.336-9.085s16.576 3.466 22.343 9.091l-0.007-0.006 340.288 331.712c5.435 5.295 8.806 12.686 8.806 20.864s-3.371 15.569-8.8 20.858l-0.006 0.006c-5.509 5.385-13.055 8.708-21.376 8.708s-15.867-3.323-21.382-8.714l0.006 0.006z" />
<glyph unicode="&#xe905;" glyph-name="arrow-down-bold" d="M104.704 621.248c11.581 11.578 27.578 18.738 45.248 18.738s33.667-7.161 45.248-18.739l316.8-316.8 316.8 316.8c11.497 11.116 27.179 17.966 44.462 17.966 35.346 0 64-28.654 64-64 0-17.282-6.85-32.964-17.983-44.48l0.017 0.018-362.048-362.048c-11.581-11.578-27.578-18.738-45.248-18.738s-33.667 7.161-45.248 18.739l-362.048 362.048c-11.578 11.581-18.738 27.578-18.738 45.248s7.161 33.667 18.739 45.248v0z" />
<glyph unicode="&#xe906;" glyph-name="arrow-left" d="M609.408 810.624l-331.648-340.224c-5.619-5.76-9.085-13.643-9.085-22.336s3.466-16.576 9.091-22.343l-0.006 0.007 331.648-340.352c5.295-5.435 12.686-8.806 20.864-8.806s15.569 3.371 20.858 8.8l0.006 0.006c5.385 5.509 8.708 13.055 8.708 21.376s-3.323 15.867-8.714 21.382l-311.866 319.93 311.872 319.872c5.367 5.506 8.677 13.038 8.677 21.344s-3.31 15.838-8.683 21.35l0.006-0.006c-5.295 5.435-12.686 8.806-20.864 8.806s-15.569-3.371-20.858-8.8l-0.006-0.006z" />
<glyph unicode="&#xe907;" glyph-name="arrow-left-bold" d="M685.248 855.296c11.578-11.581 18.738-27.578 18.738-45.248s-7.161-33.667-18.739-45.248l-316.8-316.8 316.8-316.8c11.116-11.497 17.966-27.179 17.966-44.462 0-35.346-28.654-64-64-64-17.282 0-32.964 6.85-44.48 17.983l0.018-0.017-362.048 362.048c-11.578 11.581-18.738 27.578-18.738 45.248s7.161 33.667 18.739 45.248l362.048 362.048c11.581 11.578 27.578 18.738 45.248 18.738s33.667-7.161 45.248-18.739v0z" />
<glyph unicode="&#xe908;" glyph-name="arrow-right" d="M340.864 810.688c-5.385-5.509-8.708-13.055-8.708-21.376s3.323-15.867 8.714-21.382l311.866-319.93-311.872-319.872c-5.385-5.509-8.708-13.055-8.708-21.376s3.323-15.867 8.714-21.382l-0.006 0.006c5.295-5.435 12.686-8.806 20.864-8.806s15.569 3.371 20.858 8.8l0.006 0.006 331.648 340.288c5.619 5.76 9.085 13.643 9.085 22.336s-3.466 16.576-9.091 22.343l0.006-0.007-331.648 340.288c-5.295 5.435-12.686 8.806-20.864 8.806s-15.569-3.371-20.858-8.8l-0.006-0.006z" />
<glyph unicode="&#xe909;" glyph-name="arrow-right-bold" d="M338.752 855.296c-11.578-11.581-18.738-27.578-18.738-45.248s7.161-33.667 18.739-45.248l316.8-316.8-316.8-316.8c-11.116-11.497-17.966-27.179-17.966-44.462 0-35.346 28.654-64 64-64 17.282 0 32.964 6.85 44.48 17.983l-0.018-0.017 362.048 362.048c11.578 11.581 18.738 27.578 18.738 45.248s-7.161 33.667-18.739 45.248l-362.048 362.048c-11.581 11.578-27.578 18.738-45.248 18.738s-33.667-7.161-45.248-18.739v0z" />
<glyph unicode="&#xe90a;" glyph-name="arrow-up" d="M488.832 615.68l-339.84-356.672c-5.471-5.731-8.838-13.512-8.838-22.080s3.367-16.349 8.85-22.092l0.372-0.372c5.375-5.649 12.949-9.163 21.344-9.163s15.969 3.514 21.332 9.151l0.012 0.012 320 335.872 319.872-335.872c5.375-5.649 12.949-9.163 21.344-9.163s15.969 3.514 21.332 9.151l0.396 0.396c5.471 5.731 8.838 13.512 8.838 22.080s-3.367 16.349-8.85 22.092l0.012-0.012-339.84 356.672c-5.84 6.121-14.059 9.926-23.168 9.926s-17.328-3.806-23.156-9.914l-0.012-0.013z" />
<glyph unicode="&#xe90b;" glyph-name="arrow-up-bold" d="M104.704 274.752c11.581-11.578 27.578-18.738 45.248-18.738s33.667 7.161 45.248 18.739l316.8 316.8 316.8-316.8c11.497-11.116 27.179-17.966 44.462-17.966 35.346 0 64 28.654 64 64 0 17.282-6.85 32.964-17.983 44.48l0.017-0.018-362.048 362.048c-11.581 11.578-27.578 18.738-45.248 18.738s-33.667-7.161-45.248-18.739l-362.048-362.048c-11.578-11.581-18.738-27.578-18.738-45.248s7.161-33.667 18.739-45.248v0z" />
<glyph unicode="&#xe90c;" glyph-name="avatar" d="M628.736 431.104c174.3-52.145 299.179-211.029 299.264-399.094v-0.010h-832c0.039 188.089 124.938 346.996 296.319 398.346l2.945 0.758 116.736-175.104zM720 656c0-114.875-93.125-208-208-208s-208 93.125-208 208v0c0 114.875 93.125 208 208 208s208-93.125 208-208v0z" />
<glyph unicode="&#xe90d;" glyph-name="back" d="M224 480h640c17.673 0 32-14.327 32-32s-14.327-32-32-32v0h-640c-17.673 0-32 14.327-32 32s14.327 32 32 32v0zM237.248 448l265.408-265.344c5.798-5.798 9.384-13.808 9.384-22.656 0-17.695-14.345-32.040-32.040-32.040-8.848 0-16.858 3.586-22.656 9.384v0l-288 288c-5.808 5.794-9.401 13.805-9.401 22.656s3.593 16.862 9.401 22.655l288.001 288.001c5.798 5.798 13.808 9.384 22.656 9.384 17.695 0 32.040-14.345 32.040-32.040 0-8.848-3.586-16.858-9.384-22.656v0z" />
<glyph unicode="&#xe90e;" glyph-name="baseball" d="M195.2 131.2c-81.076 81.076-131.223 193.082-131.223 316.8 0 247.436 200.587 448.023 448.023 448.023 123.718 0 235.724-50.147 316.8-131.223v0c81.076-81.076 131.223-193.082 131.223-316.8 0-247.436-200.587-448.023-448.023-448.023-123.718 0-235.724 50.147-316.8 131.223v0zM240.448 176.448c69.496-69.496 165.504-112.481 271.552-112.481 212.095 0 384.033 171.937 384.033 384.033 0 106.048-42.984 202.056-112.481 271.552v0c-69.496 69.496-165.504 112.481-271.552 112.481-212.095 0-384.033-171.937-384.033-384.033 0-106.048 42.984-202.056 112.481-271.552v0zM497.472 863.104c22.784-4.672 44.416-9.472 64.896-14.528-21.856-36.924-34.771-81.379-34.771-128.851 0-141.456 114.672-256.128 256.128-256.128 47.472 0 91.927 12.915 130.044 35.423l-1.193-0.652c5.056-20.48 9.856-42.112 14.528-64.896-41.78-21.394-91.144-33.932-143.436-33.932-176.802 0-320.128 143.326-320.128 320.128 0 52.293 12.538 101.657 34.772 145.25l-0.84-1.814zM108.48 468.096c38.769 17.982 84.15 28.472 131.98 28.472 176.802 0 320.128-143.326 320.128-320.128 0-47.847-10.497-93.242-29.314-134.009l0.822 1.985c-23.040 3.648-44.992 7.424-65.728 11.52 18.925 34.853 30.051 76.316 30.051 120.377 0 141.456-114.672 256.128-256.128 256.128-44.078 0-85.555-11.134-121.772-30.743l1.353 0.67c-2.572 11.105-6.555 33.418-10.108 55.874l-1.284 9.854z" />
<glyph unicode="&#xe90f;" glyph-name="basketball" d="M778.752 171.776c65.279 62.914 108.209 148.623 115.944 244.276l0.088 1.356c-38.115 23.681-84.366 37.719-133.895 37.719-39.13 0-76.213-8.762-109.396-24.43l1.562 0.663c55.543-73.738 98.733-160.372 124.446-254.23l1.25-5.354zM723.712 127.552c-23.563 103.134-66.979 193.628-126.299 271.328l1.243-1.696c-57.459-47.328-93.813-118.484-93.813-198.131 0-49.514 14.050-95.746 38.38-134.928l-0.631 1.091c68.037 5.5 129.882 28.003 182.508 63.21l-1.388-0.874zM469.632 66.304c-18.193 38.968-28.808 84.604-28.808 132.719 0 99.404 45.306 188.225 116.394 246.943l0.541 0.434c-15.473 16.96-31.195 32.662-47.616 47.611l-0.576 0.517c-59.151-71.578-147.941-116.847-247.304-116.847-47.822 0-93.196 10.486-133.946 29.284l1.986-0.822c10.028-90.404 50.223-169.926 110.136-229.688l0.008-0.008c59.653-59.799 138.977-99.951 227.44-109.92l1.744-0.16zM129.28 478.912c37.905-23.395 83.849-37.257 133.030-37.257 79.598 0 150.715 36.309 197.692 93.268l0.35 0.437c-75.805 57.723-166.012 100.891-264.093 123.441l-4.707 0.911c-34.263-51.153-56.737-112.881-62.182-179.43l-0.090-1.37zM235.84 714.752c98.851-26.872 185.178-69.838 260.66-126.473l-1.972 1.417c15.038 31.65 23.819 68.773 23.819 107.947 0 49.219-13.862 95.2-37.896 134.252l0.636-1.111c-96.866-7.92-182.425-50.832-245.134-115.913l-0.114-0.119zM553.92 829.696c40.576-89.536 37.76-193.92-8.448-281.344 23.597-20.962 45.203-42.547 65.492-65.331l0.684-0.781c43.298 23.234 94.732 36.884 149.354 36.884 48.124 0 93.773-10.595 134.741-29.581l-1.983 0.825c-10.163 90.19-50.333 169.49-110.135 229.111l-0.009 0.009c-59.748 59.933-139.245 100.147-227.9 110.051l-1.732 0.157zM828.8 131.2c-81.076-81.076-193.082-131.223-316.8-131.223-247.436 0-448.023 200.587-448.023 448.023 0 123.718 50.147 235.724 131.223 316.8v0c81.076 81.076 193.082 131.223 316.8 131.223 247.436 0 448.023-200.587 448.023-448.023 0-123.718-50.147-235.724-131.223-316.8v0z" />
<glyph unicode="&#xe910;" glyph-name="bell" d="M512 896c35.346 0 64-28.654 64-64v0-64h-128v64c0 35.346 28.654 64 64 64v0zM256 192h512v320c0 141.385-114.615 256-256 256s-256-114.615-256-256v0zM512 832c176.731 0 320-143.269 320-320v0-384h-640v384c0 176.731 143.269 320 320 320v0zM96 192h832q32 0 32-32t-32-32h-832q-32 0-32 32t32 32zM448 64h128c0-35.346-28.654-64-64-64s-64 28.654-64 64v0z" />
<glyph unicode="&#xe911;" glyph-name="bell-filled" d="M640 128c0-70.692-57.308-128-128-128s-128 57.308-128 128v0zM832 192h-697.6c-21.208 0-38.4 17.192-38.4 38.4s17.192 38.4 38.4 38.4h57.6v243.2c0 154.88 110.080 284.16 256.32 313.6-0.204 1.917-0.32 4.141-0.32 6.392 0 35.346 28.654 64 64 64s64-28.654 64-64c0-2.251-0.116-4.475-0.343-6.666l0.023 0.274c147.239-30.735 256.267-159.427 256.32-313.594v-243.206h57.6c21.208 0 38.4-17.192 38.4-38.4s-17.192-38.4-38.4-38.4v0z" />
<glyph unicode="&#xe912;" glyph-name="bicycle" d="M256 128c70.692 0 128 57.308 128 128s-57.308 128-128 128v0c-70.692 0-128-57.308-128-128s57.308-128 128-128v0zM256 64c-106.039 0-192 85.961-192 192s85.961 192 192 192v0c106.039 0 192-85.961 192-192s-85.961-192-192-192v0zM288 288h320q32 0 32-32t-32-32h-320q-32 0-32 32t32 32zM768 128c70.692 0 128 57.308 128 128s-57.308 128-128 128v0c-70.692 0-128-57.308-128-128s57.308-128 128-128v0zM768 64c-106.039 0-192 85.961-192 192s85.961 192 192 192v0c106.039 0 192-85.961 192-192s-85.961-192-192-192v0zM480 768c-17.673 0-32 14.327-32 32s14.327 32 32 32v0h160c14.919-0.004 27.452-10.218 30.992-24.034l0.048-0.222 96-384c0.496-2.111 0.781-4.535 0.781-7.025 0-17.673-14.327-32-32-32-14.662 0-27.021 9.861-30.806 23.312l-0.054 0.225-89.92 359.744zM96 576c-17.673 0-32 14.327-32 32s14.327 32 32 32v0h128c14.046-0.011 25.973-9.070 30.269-21.663l0.067-0.225 64-192c1.297-3.345 2.048-7.217 2.048-11.264 0-17.673-14.327-32-32-32-14.48 0-26.714 9.618-30.662 22.813l-0.058 0.227-56.704 170.112zM373.376 360.192l-42.752 47.616 320 288 42.752-47.616z" />
<glyph unicode="&#xe913;" glyph-name="bottom" d="M544 154.112v637.888c0 17.673-14.327 32-32 32s-32-14.327-32-32v0-637.888l-233.344 247.936c-5.636 6.139-13.698 9.973-22.656 9.973s-17.020-3.834-22.636-9.951l-0.020-0.022c-5.805-6.303-9.364-14.752-9.364-24.032s3.559-17.729 9.387-24.057l-0.023 0.025 288-306.048c5.636-6.139 13.698-9.973 22.656-9.973s17.020 3.834 22.636 9.951l0.020 0.022 288 306.048c5.787 6.298 9.335 14.735 9.335 24s-3.547 17.702-9.358 24.026l0.023-0.026c-5.636 6.139-13.698 9.973-22.656 9.973s-17.020-3.834-22.636-9.951l-0.020-0.022-233.344-247.808z" />
<glyph unicode="&#xe914;" glyph-name="bottom-left" d="M256 192h416c17.673 0 32-14.327 32-32s-14.327-32-32-32v0h-448c-17.673 0-32 14.327-32 32v0 448c0 17.673 14.327 32 32 32s32-14.327 32-32v0zM246.656 137.344c-5.798-5.798-13.808-9.384-22.656-9.384-17.695 0-32.040 14.345-32.040 32.040 0 8.848 3.586 16.858 9.384 22.656v0l544 544c5.798 5.798 13.808 9.384 22.656 9.384 17.695 0 32.040-14.345 32.040-32.040 0-8.848-3.586-16.858-9.384-22.656v0z" />
<glyph unicode="&#xe915;" glyph-name="bottom-right" d="M352 192c-17.673 0-32-14.327-32-32s14.327-32 32-32v0h448c17.673 0 32 14.327 32 32v0 448c0 17.673-14.327 32-32 32s-32-14.327-32-32v0-416zM777.344 137.344c5.798-5.798 13.808-9.384 22.656-9.384 17.695 0 32.040 14.345 32.040 32.040 0 8.848-3.586 16.858-9.384 22.656v0l-544 544c-5.798 5.798-13.808 9.384-22.656 9.384-17.695 0-32.040-14.345-32.040-32.040 0-8.848 3.586-16.858 9.384-22.656v0z" />
<glyph unicode="&#xe916;" glyph-name="bowl" d="M714.432 256c82.455 58.428 138.228 149.836 148.054 254.6l0.106 1.4h-701.184c9.932-106.164 65.705-197.572 147.068-255.265l1.092-0.735zM288 193.408c-116.18 75.011-192 203.835-192 350.367 0 0.079 0 0.158 0 0.237v-0.012c0 17.673 14.327 32 32 32v0h768c17.673 0 32-14.327 32-32v0c0-0.067 0-0.146 0-0.225 0-146.532-75.82-275.356-190.369-349.38l-1.631-0.988v-65.408c0-35.346-28.654-64-64-64v0h-320c-35.346 0-64 28.654-64 64v0zM493.248 640h-90.496l254.4 254.4c5.827 6.027 13.985 9.769 23.017 9.769 17.673 0 32-14.327 32-32 0-9.032-3.742-17.19-9.76-23.009l-0.009-0.009zM680.576 640h-128l269.696 155.712c4.546 2.63 10 4.182 15.816 4.182 17.673 0 32-14.327 32-32 0-11.707-6.287-21.946-15.669-27.525l-0.147-0.081zM352 192v-64h320v64z" />
<glyph unicode="&#xe917;" glyph-name="box" d="M317.056 832l-189.056-216.064v-551.936h768v551.936l-189.056 216.064zM302.528 896h418.944c0.007 0 0.015 0 0.023 0 9.563 0 18.146-4.195 24.010-10.845l0.030-0.035 206.528-236.096c4.92-5.592 7.926-12.972 7.936-21.054v-595.97c0-17.673-14.327-32-32-32v0h-832c-17.673 0-32 14.327-32 32v0 595.968c0 0.008 0 0.017 0 0.027 0 8.097 3.008 15.492 7.967 21.129l-0.031-0.036 206.464 235.904c5.893 6.754 14.514 11 24.127 11.008h0.001zM64 640h896v-64h-896zM448 632.128v-312.128h128v312.128l-49.92 199.872h-28.16zM448 896h128l64-256v-352c0-17.673-14.327-32-32-32v0h-192c-17.673 0-32 14.327-32 32v0 352z" />
<glyph unicode="&#xe918;" glyph-name="briefcase" d="M320 640v192h384v-192h192v-192h-768v192zM128 384h768v-320h-768zM384 640h256.064v128h-256.064z" />
<glyph unicode="&#xe919;" glyph-name="brush" d="M896 512h-768v-192c0-35.346 28.654-64 64-64v0h192v-192h256v192h192c35.346 0 64 28.654 64 64v0zM125.248 576c0 47.552 5.248 90.24 15.552 128 14.72 54.016 42.496 107.392 83.2 160h417.28l-15.36-70.336 110.080 70.336h211.2c-24.832-42.88-41.92-96.256-51.2-160-4.411-28.754-6.931-61.926-6.931-95.687 0-11.366 0.286-22.665 0.85-33.89l-0.063 1.577h70.144v-256c0-70.692-57.308-128-128-128v0h-128v-160c0-17.673-14.327-32-32-32v0h-320c-17.673 0-32 14.327-32 32v0 160h-128c-70.692 0-128 57.308-128 128v0 256zM189.248 576h636.544c-2.048 45.824 0.256 91.584 6.848 137.216 4.48 30.848 10.688 59.776 18.688 86.784h-96.64l-221.12-141.248 28.352 141.248h-305.408c-25.856-37.888-43.776-75.456-53.952-112.832-8.768-32.064-13.248-69.12-13.312-111.168z" />
<glyph unicode="&#xe91a;" glyph-name="brush-filled" d="M608 256v-160c0-53.019-42.981-96-96-96s-96 42.981-96 96v0 160h-96c-70.692 0-128 57.308-128 128v0h640c0-70.692-57.308-128-128-128v0zM192 448v383.936h640v-383.936z" />
<glyph unicode="&#xe91b;" glyph-name="burger" d="M160 448c-17.673 0-32-14.327-32-32v0-64c0-0.017 0-0.037 0-0.058 0-16.998 13.253-30.9 29.989-31.938l0.091-0.005h705.92c17.673 0 32 14.327 32 32v0 64c0 17.673-14.327 32-32 32v0zM896 506.56c37.605-13.577 64-48.961 64-90.51 0-0.018 0-0.035 0-0.053v0.003-64c0-0.002 0-0.004 0-0.006 0-36.936-20.86-69-51.441-85.054l-0.527-0.252-52.672-140.288c-14.047-36.685-48.964-62.261-89.855-62.272h-507.009c-40.892 0.011-75.809 25.587-89.634 61.615l-0.222 0.657-52.608 140.224c-31.144 16.295-52.032 48.378-52.032 85.339 0 0.013 0 0.026 0 0.039v-0.002 64c0 0.015 0 0.033 0 0.050 0 41.549 26.395 76.933 63.332 90.298l0.668 0.211v5.44c1.542 210.91 172.874 381.29 384 381.29 212.083 0 384.010-171.927 384.010-384.010 0-0.956-0.003-1.912-0.010-2.866l0.001 0.146zM832 512c0 176.731-143.269 320-320 320s-320-143.269-320-320v0zM512 256h-323.648l40.192-107.136c4.689-12.219 16.326-20.736 29.952-20.736v0h507.008c13.626 0 25.263 8.517 29.878 20.517l0.074 0.219 40.192 107.136z" />
<glyph unicode="&#xe91c;" glyph-name="calendar" d="M128 576v-512h768v704h-128v-32c0-17.673-14.327-32-32-32s-32 14.327-32 32v0 32h-384v-32c0-17.673-14.327-32-32-32s-32 14.327-32 32v0 32h-128v-128h768v-64zM320 832h384v32c0 17.673 14.327 32 32 32s32-14.327 32-32v0-32h160c17.673 0 32-14.327 32-32v0-768c0-17.673-14.327-32-32-32v0h-832c-17.673 0-32 14.327-32 32v0 768c0 17.673 14.327 32 32 32v0h160v32c0 17.673 14.327 32 32 32s32-14.327 32-32v0zM288 448h64c17.673 0 32-14.327 32-32s-14.327-32-32-32v0h-64c-17.673 0-32 14.327-32 32s14.327 32 32 32v0zM288 256h64c17.673 0 32-14.327 32-32s-14.327-32-32-32v0h-64c-17.673 0-32 14.327-32 32s14.327 32 32 32v0zM480 448h64c17.673 0 32-14.327 32-32s-14.327-32-32-32v0h-64c-17.673 0-32 14.327-32 32s14.327 32 32 32v0zM480 256h64c17.673 0 32-14.327 32-32s-14.327-32-32-32v0h-64c-17.673 0-32 14.327-32 32s14.327 32 32 32v0zM672 448h64c17.673 0 32-14.327 32-32s-14.327-32-32-32v0h-64c-17.673 0-32 14.327-32 32s14.327 32 32 32v0zM672 256h64c17.673 0 32-14.327 32-32s-14.327-32-32-32v0h-64c-17.673 0-32 14.327-32 32s14.327 32 32 32v0z" />
<glyph unicode="&#xe91d;" glyph-name="camera" d="M896 704h-768v-576h768zM696.576 768l-32.064 64h-304.96l-32-64zM96 768h160l46.336 92.608c10.734 21.141 32.311 35.378 57.214 35.392h304.962c24.893-0.001 46.465-14.213 57.048-34.965l0.168-0.363 46.464-92.672h159.808c17.673 0 32-14.327 32-32v0-640c0-17.673-14.327-32-32-32v0h-832c-17.673 0-32 14.327-32 32v0 640c0 17.673 14.327 32 32 32v0zM512 256c88.366 0 160 71.634 160 160s-71.634 160-160 160v0c-88.366 0-160-71.634-160-160s71.634-160 160-160v0zM512 192c-123.712 0-224 100.288-224 224s100.288 224 224 224v0c123.712 0 224-100.288 224-224s-100.288-224-224-224v0z" />
<glyph unicode="&#xe91e;" glyph-name="camera-filled" d="M160 736c-35.346 0-64-28.654-64-64v0-512c0-35.346 28.654-64 64-64v0h704c35.346 0 64 28.654 64 64v0 512c0 35.346-28.654 64-64 64v0h-115.584l-46.464 92.672c-10.75 21.115-32.323 35.327-57.216 35.328h-265.408c-24.905-0.014-46.482-14.251-57.048-35.028l-0.168-0.364-46.336-92.608zM512 300.8c63.623 0 115.2 51.577 115.2 115.2s-51.577 115.2-115.2 115.2v0c-63.623 0-115.2-51.577-115.2-115.2s51.577-115.2 115.2-115.2v0zM512 160c-141.385 0-256 114.615-256 256s114.615 256 256 256v0c141.385 0 256-114.615 256-256s-114.615-256-256-256v0z" />
<glyph unicode="&#xe91f;" glyph-name="caret-bottom" d="M192 576l320-384 320 384z" />
<glyph unicode="&#xe920;" glyph-name="caret-left" d="M672 768l-384-319.936 384-320.064z" />
<glyph unicode="&#xe921;" glyph-name="caret-right" d="M384 768v-640l384 320.064z" />
<glyph unicode="&#xe922;" glyph-name="caret-top" d="M512 640l-320-384h639.936z" />
<glyph unicode="&#xe923;" glyph-name="cellphone" d="M256 832c-35.346 0-64-28.654-64-64v0-640c0-35.346 28.654-64 64-64v0h512c35.346 0 64 28.654 64 64v0 640c0 35.346-28.654 64-64 64v0zM256 896h512c70.692 0 128-57.308 128-128v0-640c0-70.692-57.308-128-128-128v0h-512c-70.692 0-128 57.308-128 128v0 640c0 70.692 57.308 128 128 128v0zM384 768h256c17.673 0 32-14.327 32-32s-14.327-32-32-32v0h-256c-17.673 0-32 14.327-32 32s14.327 32 32 32v0zM512 128c-35.346 0-64 28.654-64 64s28.654 64 64 64v0c35.346 0 64-28.654 64-64s-28.654-64-64-64v0z" />
<glyph unicode="&#xe924;" glyph-name="chat-dot-round" d="M174.72 104.32l135.296 45.12 23.68-11.84c54.4-27.136 114.88-41.6 178.304-41.6 211.84 0 384 166.784 384 352s-172.16 352-384 352-384-166.784-384-352c0-69.12 24.96-139.264 70.848-199.232l22.080-28.8-46.272-115.584zM129.472 21.76c-3.033-1.051-6.529-1.658-10.166-1.658-17.673 0-32 14.327-32 32 0 4.286 0.843 8.375 2.371 12.111l-0.077-0.214 58.368 145.92c-53.248 69.76-83.968 153.216-83.968 238.080 0 212.096 192 416 448 416s448-203.904 448-416-192-416-448-416c-0.386-0.001-0.843-0.002-1.3-0.002-74.932 0-145.69 17.875-208.24 49.595l2.628-1.209-175.616-58.56zM512 396.8c-28.277 0-51.2 22.923-51.2 51.2s22.923 51.2 51.2 51.2v0c28.277 0 51.2-22.923 51.2-51.2s-22.923-51.2-51.2-51.2v0zM704 396.8c-28.277 0-51.2 22.923-51.2 51.2s22.923 51.2 51.2 51.2v0c28.277 0 51.2-22.923 51.2-51.2s-22.923-51.2-51.2-51.2v0zM320 396.8c-28.277 0-51.2 22.923-51.2 51.2s22.923 51.2 51.2 51.2v0c28.277 0 51.2-22.923 51.2-51.2s-22.923-51.2-51.2-51.2v0z" />
<glyph unicode="&#xe925;" glyph-name="chat-dot-square" d="M273.536 224h526.464c35.346 0 64 28.654 64 64v0 416c0 35.346-28.654 64-64 64v0h-576c-35.346 0-64-28.654-64-64v0-570.88zM296 160l-148.032-118.4c-5.421-4.358-12.386-6.994-19.968-6.994-17.657 0-31.974 14.301-32 31.952v637.443c0 70.692 57.308 128 128 128v0h576c70.692 0 128-57.308 128-128v0-416c0-70.692-57.308-128-128-128v0zM512 460.8c-28.277 0-51.2 22.923-51.2 51.2s22.923 51.2 51.2 51.2v0c28.277 0 51.2-22.923 51.2-51.2s-22.923-51.2-51.2-51.2v0zM704 460.8c-28.277 0-51.2 22.923-51.2 51.2s22.923 51.2 51.2 51.2v0c28.277 0 51.2-22.923 51.2-51.2s-22.923-51.2-51.2-51.2v0zM320 460.8c-28.277 0-51.2 22.923-51.2 51.2s22.923 51.2 51.2 51.2v0c28.277 0 51.2-22.923 51.2-51.2s-22.923-51.2-51.2-51.2v0z" />
<glyph unicode="&#xe926;" glyph-name="chat-line-round" d="M174.72 104.32l135.296 45.12 23.68-11.84c54.4-27.136 114.88-41.6 178.304-41.6 211.84 0 384 166.784 384 352s-172.16 352-384 352-384-166.784-384-352c0-69.12 24.96-139.264 70.848-199.232l22.080-28.8-46.272-115.584zM129.472 21.76c-3.033-1.051-6.529-1.658-10.166-1.658-17.673 0-32 14.327-32 32 0 4.286 0.843 8.375 2.371 12.111l-0.077-0.214 58.368 145.92c-53.248 69.76-83.968 153.216-83.968 238.080 0 212.096 192 416 448 416s448-203.904 448-416-192-416-448-416c-0.386-0.001-0.843-0.002-1.3-0.002-74.932 0-145.69 17.875-208.24 49.595l2.628-1.209-175.616-58.56zM352 384h320q32 0 32-32t-32-32h-320q-32 0-32 32t32 32zM384 576h256q32 0 32-32t-32-32h-256q-32 0-32 32t32 32z" />
<glyph unicode="&#xe927;" glyph-name="chat-line-square" d="M160 133.12l113.536 90.88h526.464c35.346 0 64 28.654 64 64v0 416c0 35.346-28.654 64-64 64v0h-576c-35.346 0-64-28.654-64-64v0zM296 160l-148.032-118.4c-5.421-4.358-12.386-6.994-19.968-6.994-17.657 0-31.974 14.301-32 31.952v637.443c0 70.692 57.308 128 128 128v0h576c70.692 0 128-57.308 128-128v0-416c0-70.692-57.308-128-128-128v0zM352 448h320q32 0 32-32t-32-32h-320q-32 0-32 32t32 32zM352 640h320q32 0 32-32t-32-32h-320q-32 0-32 32t32 32z" />
<glyph unicode="&#xe928;" glyph-name="chat-round" d="M174.72 104.32l130.048 43.392 23.424-11.392c54.208-26.304 116.16-40.32 183.808-40.32 223.744 0 384 159.872 384 352 0 192.832-159.104 352-384 352s-384-159.168-384-352c0.408-77.164 26.373-148.185 69.853-205.114l-0.605 0.826 21.632-28.8-44.16-110.528zM129.472 21.76c-3.033-1.051-6.529-1.658-10.166-1.658-17.673 0-32 14.327-32 32 0 4.286 0.843 8.375 2.371 12.111l-0.077-0.214 56.512 141.248c-50.9 66.677-81.699 151.078-82.112 242.656v0.096c0 212.096 171.648 416 448 416s448-203.904 448-416-173.44-416-448-416c-79.68 0-150.848 17.152-211.712 46.72l-170.88-56.96z" />
<glyph unicode="&#xe929;" glyph-name="chat-square" d="M273.536 224h526.464c35.346 0 64 28.654 64 64v0 416c0 35.346-28.654 64-64 64v0h-576c-35.346 0-64-28.654-64-64v0-570.88zM296 160l-148.032-118.4c-5.421-4.358-12.386-6.994-19.968-6.994-17.657 0-31.974 14.301-32 31.952v637.443c0 70.692 57.308 128 128 128v0h576c70.692 0 128-57.308 128-128v0-416c0-70.692-57.308-128-128-128v0z" />
<glyph unicode="&#xe92a;" glyph-name="check" d="M406.656 253.056l-210.816 210.688c-5.827 6.027-13.985 9.769-23.017 9.769-17.673 0-32-14.327-32-32 0-9.032 3.742-17.19 9.76-23.009l256.009-256.009 512 512c5.558 5.749 8.983 13.59 8.983 22.231 0 17.673-14.327 32-32 32-8.641 0-16.482-3.425-22.24-8.991l-466.743-466.679z" />
<glyph unicode="&#xe92b;" glyph-name="checked" d="M704 768h160v-736h-704v736h160.064v-64h383.936zM311.616 422.72l-45.312-45.248 181.056-180.992 316.8 316.8-45.312 45.184-271.488-271.488zM384 768v96h256v-96z" />
<glyph unicode="&#xe92c;" glyph-name="cherry" d="M261.056 510.4c13.824 69.696 34.88 128.96 63.36 177.728 23.744 40.832 61.12 88.64 112.256 143.872h-116.672c-17.673 0-32 14.327-32 32s14.327 32 32 32v0h384c17.673 0 32-14.327 32-32s-14.327-32-32-32v0h-149.248c14.912-39.168 41.344-86.592 79.552-141.76 47.36-68.48 84.8-106.752 106.304-114.304 121.618-2.704 219.173-101.934 219.173-223.948 0-123.712-100.288-224-224-224s-224 100.288-224 224c0 94.887 58.998 175.994 142.313 208.639l1.522 0.525c-22.656 22.912-47.040 53.76-73.92 92.608-38.848 56.128-67.008 105.792-84.352 149.312-55.296-58.24-94.528-107.52-117.76-147.2-23.168-39.744-41.088-88.768-53.568-147.072 106.363-18.771 186.125-110.485 186.125-220.829 0-123.747-100.317-224.064-224.064-224.064s-224.064 100.317-224.064 224.064c0 114.223 85.47 208.484 195.944 222.317l1.099 0.112zM288 128c88.366 0 160 71.634 160 160s-71.634 160-160 160v0c-88.366 0-160-71.634-160-160s71.634-160 160-160v0zM736 192c88.366 0 160 71.634 160 160s-71.634 160-160 160v0c-88.366 0-160-71.634-160-160s71.634-160 160-160v0z" />
<glyph unicode="&#xe92d;" glyph-name="chicken" d="M349.952 243.008l128.768 128.832c-10.044 5.256-18.666 11.611-26.182 19.078l0.006-0.006c-7.461 7.51-13.816 16.132-18.792 25.592l-0.28 0.584-128.768-128.832c0.768-3.072 1.472-6.144 2.048-9.216l2.048-31.936 31.872-1.984c3.136-0.64 6.208-1.28 9.28-2.112zM407.296 209.856c23.115-23.155 37.409-55.123 37.409-90.428 0-70.692-57.308-128-128-128-62.203 0-114.042 44.369-125.596 103.186l-0.133 0.811-1.92 32-32 1.92c-59.627 11.687-103.996 63.527-103.996 125.729 0 70.692 57.308 128 128 128 35.306 0 67.273-14.294 90.43-37.411l-0.002 0.002 145.152 145.088c-2.432 101.44 58.112 239.104 149.056 330.048 107.328 107.328 231.296 85.504 316.8 0 85.44-85.44 107.328-209.408 0-316.8-91.008-90.88-228.672-151.424-330.112-149.056l-145.088-145.024zM497.792 436.16c49.536-49.536 233.344 7.040 339.392 113.088 78.208 78.208 63.232 163.072 0 226.304-63.168 63.232-148.032 78.208-226.24 0-106.048-106.048-162.624-289.92-113.152-339.392zM244.864 251.072c0.081 1.206 0.127 2.614 0.127 4.033 0 35.346-28.654 64-64 64s-64-28.654-64-64c0-35.346 28.654-64 64-64 1.419 0 2.827 0.046 4.223 0.137l-0.19-0.010 56.32 3.52zM252.928 123.392c-0.081-1.206-0.127-2.614-0.127-4.033 0-35.346 28.654-64 64-64s64 28.654 64 64c0 35.346-28.654 64-64 64-1.419 0-2.827-0.046-4.223-0.137l0.19 0.010-56.32-3.52z" />
<glyph unicode="&#xe92e;" glyph-name="chrome-filled" d="M938.67 447.99c0 44.59-6.82 87.6-19.54 128h-236.46c26.637-35.1 42.67-79.519 42.67-127.683 0-0.111 0-0.223 0-0.334v0.017c0.060-38.71-10.45-76.7-30.42-109.87l-182.91-316.8c235.65 0.010 426.66 191.020 426.66 426.67zM576.79 558.37c-18.199 10.863-40.096 17.373-63.496 17.6h-0.064c-22.36 0.22-44.39-5.43-63.89-16.38s-35.79-26.82-47.25-46.020c-11.364-18.738-18.089-41.384-18.089-65.601 0-22.692 5.905-44.004 16.261-62.485l-0.333 0.646 1.24-2.13c11.332-19.427 27.009-35.183 45.767-46.285l0.593-0.325c18.16-10.78 39.995-17.232 63.321-17.44h0.059c22.29-0.2 44.24 5.43 63.68 16.33 19.59 11.119 35.523 26.613 46.84 45.224l0.32 0.566v0.010l1.11 1.92c10.777 18.354 17.142 40.425 17.142 63.983 0 23.353-6.255 45.244-17.18 64.092l0.329-0.614c-11.299 19.544-26.982 35.403-45.772 46.586l-0.588 0.324zM394.45 626.040c33.079 22.114 73.763 35.29 117.525 35.29 0.009 0 0.018 0 0.026 0h369.579c-75.105 128.428-212.341 213.33-369.406 213.33-0.061 0-0.122 0-0.184 0h0.010c-0.141 0-0.308 0-0.475 0-61.973 0-120.852-13.246-173.96-37.060l2.695 1.080c-55.944-24.964-103.391-59.473-142.338-101.909l-0.282-0.311 118.14-204.63c16.99 39.084 44.027 71.116 77.892 93.721l0.778 0.489zM512.010 21.32h-0.010zM414.76 258.050c-38.093 19.786-68.677 49.493-88.986 85.734l-0.554 1.076-182.74 316.54c-36.35-62.81-57.13-135.68-57.13-213.42 0-203.81 142.93-374.22 333.95-416.55h0.040l118.19 204.71c-7.67-0.978-16.544-1.536-25.548-1.536-35.493 0-68.961 8.669-98.403 24.005l1.181-0.56z" />
<glyph unicode="&#xe92f;" glyph-name="circle-check" d="M512 64c212.077 0 384 171.923 384 384s-171.923 384-384 384v0c-212.077 0-384-171.923-384-384s171.923-384 384-384v0zM512 0c-247.424 0-448 200.576-448 448s200.576 448 448 448v0c247.424 0 448-200.576 448-448s-200.576-448-448-448v0zM745.344 598.656c5.798 5.798 13.808 9.384 22.656 9.384 17.695 0 32.040-14.345 32.040-32.040 0-8.848-3.586-16.858-9.384-22.656v0l-288-288c-5.794-5.808-13.805-9.401-22.656-9.401s-16.862 3.593-22.655 9.401l-160.001 160.001c-5.798 5.798-9.384 13.808-9.384 22.656 0 17.695 14.345 32.040 32.040 32.040 8.848 0 16.858-3.586 22.656-9.384v0l137.344-137.408z" />
<glyph unicode="&#xe930;" glyph-name="circle-check-filled" d="M512 896c247.424 0 448-200.576 448-448s-200.576-448-448-448v0c-247.424 0-448 200.576-448 448s200.576 448 448 448v0zM456.192 359.616l-99.52 99.584c-6.953 6.953-16.558 11.253-27.168 11.253-21.22 0-38.421-17.202-38.421-38.421 0-10.61 4.3-20.215 11.253-27.168l126.72-126.72c6.936-6.99 16.547-11.316 27.168-11.316s20.232 4.327 27.166 11.314l262.402 262.466c7.091 6.972 11.485 16.667 11.485 27.388 0 21.208-17.192 38.4-38.4 38.4-10.706 0-20.388-4.381-27.352-11.448l-0.005-0.005z" />
<glyph unicode="&#xe931;" glyph-name="circle-close" d="M466.752 448l-90.496 90.496c-5.558 5.749-8.983 13.59-8.983 22.231 0 17.673 14.327 32 32 32 8.641 0 16.482-3.425 22.24-8.991l90.487-90.487 90.496 90.496c5.827 6.027 13.985 9.769 23.017 9.769 17.673 0 32-14.327 32-32 0-9.032-3.742-17.19-9.76-23.009l-90.505-90.505 90.496-90.496c6.027-5.827 9.769-13.985 9.769-23.017 0-17.673-14.327-32-32-32-9.032 0-17.19 3.742-23.009 9.76l-90.505 90.505-90.496-90.496c-5.749-5.558-13.59-8.983-22.231-8.983-17.673 0-32 14.327-32 32 0 8.641 3.425 16.482 8.991 22.24l-0.009-0.009zM512 64c212.077 0 384 171.923 384 384s-171.923 384-384 384v0c-212.077 0-384-171.923-384-384s171.923-384 384-384v0zM512 0c-247.424 0-448 200.576-448 448s200.576 448 448 448v0c247.424 0 448-200.576 448-448s-200.576-448-448-448v0z" />
<glyph unicode="&#xe932;" glyph-name="circle-close-filled" d="M512 896c247.424 0 448-200.576 448-448s-200.576-448-448-448v0c-247.424 0-448 200.576-448 448s200.576 448 448 448v0zM512 502.336l-104.064 104.064c-6.953 6.953-16.558 11.253-27.168 11.253-21.22 0-38.421-17.202-38.421-38.421 0-10.61 4.3-20.215 11.253-27.168l104.064-104.064-104.064-104.064c-6.953-6.953-11.253-16.558-11.253-27.168 0-21.22 17.202-38.421 38.421-38.421 10.61 0 20.215 4.3 27.168 11.253l104.064 104.064 104.064-104.064c6.953-6.953 16.558-11.253 27.168-11.253 21.22 0 38.421 17.202 38.421 38.421 0 10.61-4.3 20.215-11.253 27.168l-104.064 104.064 104.064 104.064c6.953 6.953 11.253 16.558 11.253 27.168 0 21.22-17.202 38.421-38.421 38.421-10.61 0-20.215-4.3-27.168-11.253v0z" />
<glyph unicode="&#xe933;" glyph-name="circle-plus" d="M352 480h320c17.673 0 32-14.327 32-32s-14.327-32-32-32v0h-320c-17.673 0-32 14.327-32 32s14.327 32 32 32v0zM480 288v320c0 17.673 14.327 32 32 32s32-14.327 32-32v0-320c0-17.673-14.327-32-32-32s-32 14.327-32 32v0zM512 64c212.077 0 384 171.923 384 384s-171.923 384-384 384v0c-212.077 0-384-171.923-384-384s171.923-384 384-384v0zM512 0c-247.424 0-448 200.576-448 448s200.576 448 448 448v0c247.424 0 448-200.576 448-448s-200.576-448-448-448v0z" />
<glyph unicode="&#xe934;" glyph-name="circle-plus-filled" d="M512 896c247.424 0 448-200.576 448-448s-200.576-448-448-448v0c-247.424 0-448 200.576-448 448s200.576 448 448 448v0zM473.6 486.4h-147.2c-21.208 0-38.4-17.192-38.4-38.4s17.192-38.4 38.4-38.4h147.2v-147.2c0-21.208 17.192-38.4 38.4-38.4s38.4 17.192 38.4 38.4v0 147.2h147.2c21.208 0 38.4 17.192 38.4 38.4s-17.192 38.4-38.4 38.4h-147.2v147.2c0 21.208-17.192 38.4-38.4 38.4s-38.4-17.192-38.4-38.4v0z" />
<glyph unicode="&#xe935;" glyph-name="clock" d="M512 64c212.077 0 384 171.923 384 384s-171.923 384-384 384v0c-212.077 0-384-171.923-384-384s171.923-384 384-384v0zM512 0c-247.424 0-448 200.576-448 448s200.576 448 448 448v0c247.424 0 448-200.576 448-448s-200.576-448-448-448v0zM480 704c17.673 0 32-14.327 32-32v0-256c0-17.673-14.327-32-32-32s-32 14.327-32 32v0 256c0 17.673 14.327 32 32 32v0zM480 448h256q32 0 32-32t-32-32h-256q-32 0-32 32t32 32z" />
<glyph unicode="&#xe936;" glyph-name="close" d="M764.288 745.408l-252.288-252.288-252.288 252.288c-5.66 5.193-13.238 8.376-21.56 8.376-17.638 0-31.936-14.298-31.936-31.936 0-8.321 3.183-15.899 8.397-21.583l-0.021 0.023 252.16-252.288-252.224-252.224c-6.107-5.828-9.904-14.030-9.904-23.119 0-17.638 14.298-31.936 31.936-31.936 9.073 0 17.263 3.784 23.076 9.859l0.011 0.012 252.352 252.224 252.288-252.288c5.66-5.193 13.238-8.376 21.56-8.376 17.638 0 31.936 14.298 31.936 31.936 0 8.321-3.183 15.899-8.397 21.583l0.021-0.023-252.288 252.288 252.288 252.352c6.107 5.828 9.904 14.030 9.904 23.119 0 17.638-14.298 31.936-31.936 31.936-9.073 0-17.263-3.784-23.076-9.859l-0.011-0.012z" />
<glyph unicode="&#xe937;" glyph-name="close-bold" d="M195.2 764.8c11.581 11.578 27.578 18.738 45.248 18.738s33.667-7.161 45.248-18.739l226.304-226.304 226.304 226.304c11.497 11.116 27.179 17.966 44.462 17.966 35.346 0 64-28.654 64-64 0-17.282-6.85-32.964-17.983-44.48l0.017 0.018-226.304-226.304 226.304-226.304c11.116-11.497 17.966-27.179 17.966-44.462 0-35.346-28.654-64-64-64-17.282 0-32.964 6.85-44.48 17.983l0.018-0.017-226.304 226.304-226.304-226.304c-11.497-11.116-27.179-17.966-44.462-17.966-35.346 0-64 28.654-64 64 0 17.282 6.85 32.964 17.983 44.48l-0.017-0.018 226.304 226.304-226.304 226.304c-11.578 11.581-18.738 27.578-18.738 45.248s7.161 33.667 18.739 45.248v0z" />
<glyph unicode="&#xe938;" glyph-name="cloudy" d="M598.4 128.128h-270.208c-2.501-0.088-5.441-0.138-8.391-0.138-141.385 0-256 114.615-256 256 0 132.191 100.193 240.98 228.781 254.57l1.114 0.095c59.302 115.607 177.681 193.343 314.217 193.343 194.404 0 352-157.596 352-352s-157.596-352-352-352c-3.345 0-6.679 0.047-10.002 0.139l0.489-0.011zM327.040 192.128h272.256c2.557-0.082 5.565-0.128 8.583-0.128 159.058 0 288 128.942 288 288s-128.942 288-288 288c-111.718 0-208.579-63.611-256.34-156.588l-0.756-1.62-15.744-31.232-34.816-3.584c-97.19-10.354-172.234-91.903-172.234-190.98 0-106.039 85.961-192 192-192 2.502 0 4.992 0.048 7.471 0.143l-0.357-0.011z" />
<glyph unicode="&#xe939;" glyph-name="coffee" d="M822.592 768h14.272c0.015 0 0.032 0 0.049 0 15.82 0 28.958-11.479 31.54-26.562l0.027-0.19 21.312-128c0.276-1.578 0.433-3.394 0.433-5.248 0-17.668-14.318-31.992-31.984-32h-49.345l-39.040-546.304c-1.239-16.654-15.055-29.696-31.917-29.696-0.007 0-0.013 0-0.020 0h-452.095c-0.025 0-0.054 0-0.083 0-16.862 0-30.678 13.043-31.911 29.59l-0.006 0.106-38.912 546.304h-49.152c-17.667 0.008-31.985 14.332-31.985 32 0 1.854 0.158 3.67 0.46 5.438l-0.027-0.19 21.312 128c2.609 15.273 15.747 26.752 31.567 26.752 0.017 0 0.035 0 0.052 0h14.013l-6.72 93.696c-0.053 0.689-0.083 1.493-0.083 2.304 0 17.673 14.327 32 32 32 0.007 0 0.013 0 0.020 0h571.007c0.006 0 0.012 0 0.019 0 17.673 0 32-14.327 32-32 0-0.811-0.030-1.615-0.089-2.41l0.006 0.106zM758.464 768l4.544 64h-502.272l4.544-64zM210.304 640h610.176l-10.688 64h-595.584l-10.688-64zM279.040 576l36.544-512h392.576l36.544 512z" />
<glyph unicode="&#xe93a;" glyph-name="coffee-cup" d="M768 768c0.168 0.001 0.367 0.001 0.566 0.001 106.039 0 192-85.961 192-192s-85.961-192-192-192c-3.013 0-6.009 0.069-8.988 0.207l0.422-0.015c-29.418-111.391-129.273-192.182-247.999-192.192h-192.001c-141.385 0-256 114.615-256 256v0 352c0 17.673 14.327 32 32 32v0h640c17.673 0 32-14.327 32-32v0zM768 704v-256c70.692 0 128 57.308 128 128s-57.308 128-128 128v0zM96 128h640c17.673 0 32-14.327 32-32s-14.327-32-32-32v0h-640c-17.673 0-32 14.327-32 32s14.327 32 32 32v0zM128 768v-320c0-106.039 85.961-192 192-192v0h192c106.039 0 192 85.961 192 192v0 320z" />
<glyph unicode="&#xe93b;" glyph-name="coin" d="M161.92 379.264l29.888-58.88c-20.48-20.16-31.808-42.112-31.808-64.384 0-82.304 155.328-160 352-160s352 77.696 352 160c0 22.272-11.392 44.16-31.808 64.32l30.464 58.432c41.28-34.56 65.344-76.416 65.344-122.752 0-129.728-188.544-224-416-224s-416 94.272-416 224c0 46.592 24.32 88.576 65.92 123.264zM161.92 571.264l29.888-58.88c-20.48-20.224-31.808-42.176-31.808-64.384 0-82.304 155.328-160 352-160s352 77.696 352 160c0 22.272-11.392 44.16-31.808 64.32l30.464 58.432c41.28-34.56 65.344-76.416 65.344-122.752 0-129.728-188.544-224-416-224s-416 94.272-416 224c0 46.592 24.32 88.576 65.92 123.264zM512 416c-227.456 0-416 94.272-416 224s188.544 224 416 224 416-94.272 416-224-188.544-224-416-224zM512 480c196.672 0 352 77.696 352 160s-155.328 160-352 160-352-77.696-352-160 155.328-160 352-160z" />
<glyph unicode="&#xe93c;" glyph-name="cold-drink" d="M768 896c105.954-0.112 191.804-86.030 191.804-192 0-106.039-85.961-192-192-192-25.1 0-49.076 4.817-71.052 13.576l1.296-0.456-218.048-290.496v-170.624h96c17.673 0 32-14.327 32-32s-14.327-32-32-32v0h-256c-17.673 0-32 14.327-32 32s14.327 32 32 32v0h96v170.624l-339.2 451.84c-7.991 10.563-12.8 23.92-12.8 38.4v10.688c0 17.673 14.327 32 32 32v0h71.808l-65.536 83.84c-4.234 5.376-6.79 12.245-6.79 19.712 0 17.677 14.33 32.006 32.006 32.006 10.21 0 19.304-4.781 25.164-12.226l0.052-0.069 96.256-123.264h337.728c27.047 75.448 97.944 128.448 181.22 128.448 0.033 0 0.065 0 0.098 0h-0.005zM656.896 767.552h143.104c17.673 0 32-14.327 32-32v0-10.624c0-14.48-4.809-27.837-12.917-38.561l0.117 0.161-80.448-107.2c8.771-2.145 18.841-3.375 29.199-3.375 70.692 0 128 57.308 128 128s-57.308 128-128 128c-47.317 0-88.637-25.674-110.79-63.852l-0.328-0.613v0.064zM299.008 703.552l129.472-165.76c3.883-5.234 6.216-11.821 6.216-18.953 0-17.673-14.327-32-32-32-9.893 0-18.737 4.489-24.606 11.541l-0.042 0.052-160.256 205.12h-73.792l304-404.928 304 404.928z" />
<glyph unicode="&#xe93d;" glyph-name="collection" d="M192 224h640v608h-576c-35.346 0-64-28.654-64-64v0zM256 896h608c17.673 0 32-14.327 32-32v0-672c0-17.673-14.327-32-32-32v0h-704l-32-57.536v665.536c0 70.692 57.308 128 128 128v0zM240 160c-26.51 0-48-21.49-48-48s21.49-48 48-48v0h592v96zM240 224h656v-160c0-35.346-28.654-64-64-64v0h-592c-61.856 0-112 50.144-112 112s50.144 112 112 112v0zM384 832v-250.88l96 76.8 96-76.8v250.88zM320 896h320v-381.44c-0.026-17.654-14.343-31.954-32-31.954-7.582 0-14.547 2.637-20.030 7.043l0.062-0.048-108.032 86.4-108.032-86.4c-5.421-4.358-12.386-6.994-19.968-6.994-17.657 0-31.974 14.301-32 31.952v0.003z" />
<glyph unicode="&#xe93e;" glyph-name="collection-tag" d="M256 832v-698.88l196.032 156.864c16.273 13.105 37.195 21.034 59.968 21.034s43.695-7.93 60.153-21.179l-0.185 0.144 196.032-156.8v698.816zM224 896h576c17.673 0 32-14.327 32-32v0-797.44c-0.026-17.654-14.343-31.954-32-31.954-7.582 0-14.547 2.637-20.030 7.043l0.062-0.048-248.064 198.4c-5.421 4.358-12.386 6.994-19.968 6.994s-14.547-2.637-20.030-7.043l0.062 0.048-248.064-198.4c-5.421-4.358-12.386-6.994-19.968-6.994-17.657 0-31.974 14.301-32 31.952v797.443c0 17.673 14.327 32 32 32v0z" />
<glyph unicode="&#xe93f;" glyph-name="comment" d="M736 456c-30.928 0-56 25.072-56 56s25.072 56 56 56v0c30.928 0 56-25.072 56-56s-25.072-56-56-56v0zM512 456c-30.928 0-56 25.072-56 56s25.072 56 56 56v0c30.928 0 56-25.072 56-56s-25.072-56-56-56v0zM288 456c-30.928 0-56 25.072-56 56s25.072 56 56 56v0c30.928 0 56-25.072 56-56s-25.072-56-56-56v0zM128 832v-640h192v-160l224 160h352v640z" />
<glyph unicode="&#xe940;" glyph-name="compass" d="M512 64c212.077 0 384 171.923 384 384s-171.923 384-384 384v0c-212.077 0-384-171.923-384-384s171.923-384 384-384v0zM512 0c-247.424 0-448 200.576-448 448s200.576 448 448 448v0c247.424 0 448-200.576 448-448s-200.576-448-448-448v0zM725.888 644.992c-49.408-113.664-101.888-198.272-157.312-253.632-55.424-55.424-139.968-107.904-253.568-157.312-1.52-0.688-3.296-1.088-5.165-1.088-7.069 0-12.8 5.731-12.8 12.8 0 1.852 0.393 3.612 1.101 5.202l-0.032-0.081c49.536 113.728 102.016 198.272 157.312 253.632 55.36 55.296 139.904 107.776 253.632 157.312 1.499 0.666 3.247 1.054 5.086 1.054 7.069 0 12.8-5.731 12.8-12.8 0-1.839-0.388-3.587-1.086-5.168l0.032 0.082z" />
<glyph unicode="&#xe941;" glyph-name="connection" d="M640 576v-64h-192c-70.692 0-128-57.308-128-128v0-128c0-70.692 57.308-128 128-128v0h320c70.692 0 128 57.308 128 128v0 128c-0.001 47.127-25.471 88.305-63.396 110.521l-0.604 0.327v70.272c74.56-26.368 128-97.472 128-181.056v-128c0-106.039-85.961-192-192-192v0h-320c-106.039 0-192 85.961-192 192v0 127.936c0 106.039 85.961 192 192 192v0zM384 320v64h192c70.692 0 128 57.308 128 128v0 128c0 70.692-57.308 128-128 128v0h-320c-70.692 0-128-57.308-128-128v0-128c0.001-47.127 25.471-88.305 63.396-110.521l0.604-0.327v-70.272c-75.213 27.174-128 97.953-128 181.062 0 0.021 0 0.041 0 0.062v-0.003 128c0 106.039 85.961 192 192 192v0h320c106.039 0 192-85.961 192-192v0-128c0-106.039-85.961-192-192-192v0z" />
<glyph unicode="&#xe942;" glyph-name="coordinate" d="M480 448h64v-320h-64zM192 64h640c0 35.346-28.654 64-64 64v0h-512c-35.346 0-64-28.654-64-64v0zM256 192h512c70.692 0 128-57.308 128-128v0-64h-768v64c0 70.692 57.308 128 128 128v0zM512 448c106.039 0 192 85.961 192 192s-85.961 192-192 192v0c-106.039 0-192-85.961-192-192s85.961-192 192-192v0zM512 384c-141.385 0-256 114.615-256 256s114.615 256 256 256v0c141.385 0 256-114.615 256-256s-114.615-256-256-256v0z" />
<glyph unicode="&#xe943;" glyph-name="copy-document" d="M768 128c0-70.692-57.308-128-128-128v0h-448c-70.692 0-128 57.308-128 128v0 448c0 70.692 57.308 128 128 128v0-64c-35.346 0-64-28.654-64-64v0-448c0-35.346 28.654-64 64-64v0h448c35.346 0 64 28.654 64 64v0zM384 832c-35.346 0-64-28.654-64-64v0-448c0-35.346 28.654-64 64-64v0h448c35.346 0 64 28.654 64 64v0 448c0 35.346-28.654 64-64 64v0zM384 896h448c70.692 0 128-57.308 128-128v0-448c0-70.692-57.308-128-128-128v0h-448c-70.692 0-128 57.308-128 128v0 448c0 70.692 57.308 128 128 128v0z" />
<glyph unicode="&#xe944;" glyph-name="cpu" d="M320 704c-35.346 0-64-28.654-64-64v0-384c0-35.346 28.654-64 64-64v0h384c35.346 0 64 28.654 64 64v0 384c0 35.346-28.654 64-64 64v0zM320 768h384c70.692 0 128-57.308 128-128v0-384c0-70.692-57.308-128-128-128v0h-384c-70.692 0-128 57.308-128 128v0 384c0 70.692 57.308 128 128 128v0zM512 896c17.673 0 32-14.327 32-32v0-128h-64v128c0 17.673 14.327 32 32 32v0zM672 896c17.673 0 32-14.327 32-32v0-128h-64v128c0 17.673 14.327 32 32 32v0zM352 896c17.673 0 32-14.327 32-32v0-128h-64v128c0 17.673 14.327 32 32 32v0zM512 0c-17.673 0-32 14.327-32 32v0 128h64v-128c0-17.673-14.327-32-32-32v0zM672 0c-17.673 0-32 14.327-32 32v0 128h64v-128c0-17.673-14.327-32-32-32v0zM352 0c-17.673 0-32 14.327-32 32v0 128h64v-128c0-17.673-14.327-32-32-32v0zM64 448c0 17.673 14.327 32 32 32v0h128v-64h-128c-17.673 0-32 14.327-32 32v0zM64 608c0 17.673 14.327 32 32 32v0h128v-64h-128c-17.673 0-32 14.327-32 32v0zM64 288c0 17.673 14.327 32 32 32v0h128v-64h-128c-17.673 0-32 14.327-32 32v0zM960 448c0-17.673-14.327-32-32-32v0h-128v64h128c17.673 0 32-14.327 32-32v0zM960 608c0-17.673-14.327-32-32-32v0h-128v64h128c17.673 0 32-14.327 32-32v0zM960 288c0-17.673-14.327-32-32-32v0h-128v64h128c17.673 0 32-14.327 32-32v0z" />
<glyph unicode="&#xe945;" glyph-name="credit-card" d="M896 635.904c0 42.368-2.496 55.296-9.536 68.48-5.052 9.488-12.638 17.053-21.86 21.943l-0.284 0.137c-13.12 7.040-26.048 9.536-68.416 9.536h-567.808c-42.368 0-55.296-2.496-68.48-9.536-9.488-5.052-17.053-12.638-21.943-21.86l-0.137-0.284c-7.040-13.12-9.536-26.048-9.536-68.416v-375.808c0-42.368 2.496-55.296 9.536-68.48 5.052-9.488 12.638-17.053 21.86-21.943l0.284-0.137c13.12-7.040 26.048-9.536 68.416-9.536h567.808c42.368 0 55.296 2.496 68.48 9.536 9.488 5.052 17.053 12.638 21.943 21.86l0.137 0.284c7.040 13.12 9.536 26.048 9.536 68.416zM960 635.904v-375.808c0-57.088-5.952-77.76-17.088-98.56-11.136-20.928-27.52-37.312-48.384-48.448s-41.6-17.088-98.56-17.088h-567.936c-57.088 0-77.76 5.952-98.56 17.088-20.741 11.108-37.315 27.661-48.143 47.765l-0.305 0.619c-11.136 20.864-17.088 41.6-17.088 98.56v375.936c0 57.088 5.952 77.76 17.088 98.56 11.136 20.928 27.52 37.312 48.384 48.448s41.6 17.088 98.56 17.088h567.872c57.088 0 77.76-5.952 98.56-17.088 20.928-11.136 37.312-27.52 48.448-48.384s17.088-41.6 17.088-98.56zM64 640h896v-64h-896zM64 512h896v-64h-896zM192 320h256v-64h-256z" />
<glyph unicode="&#xe946;" glyph-name="crop" d="M256 192h672c17.673 0 32-14.327 32-32s-14.327-32-32-32v0h-704c-17.673 0-32 14.327-32 32v0 704c0 17.673 14.327 32 32 32s32-14.327 32-32v0zM832 736v-704c0-17.673-14.327-32-32-32s-32 14.327-32 32v0 672h-672c-17.673 0-32 14.327-32 32s14.327 32 32 32v0h704c17.673 0 32-14.327 32-32v0z" />
<glyph unicode="&#xe947;" glyph-name="d-arrow-left" d="M529.408 810.624c5.295 5.435 12.686 8.806 20.864 8.806s15.569-3.371 20.858-8.8l0.006-0.006c5.367-5.506 8.677-13.038 8.677-21.344s-3.31-15.838-8.683-21.35l0.006 0.006-311.872-319.872 311.872-319.936c5.386-5.509 8.708-13.055 8.708-21.376 0-8.576-3.529-16.328-9.214-21.882l-0.006-0.006c-5.245-5.129-12.429-8.293-20.352-8.293-8.178 0-15.568 3.371-20.857 8.799l-0.006 0.006-331.648 340.352c-5.619 5.76-9.085 13.643-9.085 22.336s3.466 16.576 9.091 22.343l-0.006-0.007zM785.408 810.624c5.295 5.435 12.686 8.806 20.864 8.806s15.569-3.371 20.858-8.8l0.006-0.006c5.367-5.506 8.677-13.038 8.677-21.344s-3.31-15.838-8.683-21.35l0.006 0.006-311.872-319.872 311.872-319.936c5.386-5.509 8.708-13.055 8.708-21.376 0-8.576-3.529-16.328-9.214-21.882l-0.006-0.006c-5.245-5.129-12.429-8.293-20.352-8.293-8.178 0-15.568 3.371-20.857 8.799l-0.006 0.006-331.648 340.352c-5.619 5.76-9.085 13.643-9.085 22.336s3.466 16.576 9.091 22.343l-0.006-0.007z" />
<glyph unicode="&#xe948;" glyph-name="d-arrow-right" d="M452.864 810.688c5.293 5.416 12.671 8.774 20.833 8.774 8.194 0 15.597-3.384 20.888-8.831l0.007-0.007 331.648-340.288c5.619-5.76 9.085-13.643 9.085-22.336s-3.466-16.576-9.091-22.343l0.006 0.007-331.648-340.288c-5.295-5.435-12.686-8.806-20.864-8.806s-15.569 3.371-20.858 8.8l-0.006 0.006c-5.385 5.509-8.708 13.055-8.708 21.376s3.323 15.867 8.714 21.382l311.866 319.866-311.872 320c-5.367 5.506-8.677 13.038-8.677 21.344s3.31 15.838 8.683 21.35l-0.006-0.006zM196.864 810.688c5.293 5.416 12.671 8.774 20.833 8.774 8.194 0 15.597-3.384 20.888-8.831l0.007-0.007 331.648-340.288c5.619-5.76 9.085-13.643 9.085-22.336s-3.466-16.576-9.091-22.343l0.006 0.007-331.648-340.288c-5.295-5.435-12.686-8.806-20.864-8.806s-15.569 3.371-20.858 8.8l-0.006 0.006c-5.385 5.509-8.708 13.055-8.708 21.376s3.323 15.867 8.714 21.382l311.866 319.866-311.872 320c-5.367 5.506-8.677 13.038-8.677 21.344s3.31 15.838 8.683 21.35l-0.006-0.006z" />
<glyph unicode="&#xe949;" glyph-name="data-analysis" d="M665.216 192l110.848-192h-73.856l-110.848 192h-158.336l-110.848-192h-73.856l110.848 192h-199.168c-17.673 0-32 14.327-32 32v0 544h-64c-17.673 0-32 14.327-32 32s14.327 32 32 32v0h896c17.673 0 32-14.327 32-32s-14.327-32-32-32v0h-64v-544c0-17.673-14.327-32-32-32v0zM832 768h-640v-512h640zM352 512c17.673 0 32-14.327 32-32v0-64c0-17.673-14.327-32-32-32s-32 14.327-32 32v0 64c0 17.673 14.327 32 32 32v0zM512 576c17.673 0 32-14.327 32-32v0-128c0-17.673-14.327-32-32-32s-32 14.327-32 32v0 128c0 17.673 14.327 32 32 32v0zM672 640c17.673 0 32-14.327 32-32v0-192c0-17.673-14.327-32-32-32s-32 14.327-32 32v0 192c0 17.673 14.327 32 32 32v0z" />
<glyph unicode="&#xe94a;" glyph-name="data-board" d="M32 832h960v-64h-960zM192 768v-512h640v512zM128 832h768v-608c0-17.673-14.327-32-32-32v0h-704c-17.673 0-32 14.327-32 32v0zM322.176 0h-73.856l144.64 250.56 55.424-32zM776.064 0h-73.856l-126.208 218.56 55.424 32z" />
<glyph unicode="&#xe94b;" glyph-name="data-line" d="M359.168 192h-199.168c-17.673 0-32 14.327-32 32v0 544h-64c-17.673 0-32 14.327-32 32s14.327 32 32 32v0h896c17.673 0 32-14.327 32-32s-14.327-32-32-32v0h-64v-544c0-17.673-14.327-32-32-32v0h-198.784l110.848-192h-73.856l-110.848 192h-158.336l-110.848-192h-73.856zM832 768h-640v-512h640zM342.656 425.344c-5.798-5.798-13.808-9.384-22.656-9.384-17.695 0-32.040 14.345-32.040 32.040 0 8.848 3.586 16.858 9.384 22.656v0l147.648 147.584 125.44-94.080 108.608 135.808c5.885 8.044 15.29 13.21 25.903 13.21 17.673 0 32-14.327 32-32 0-8.122-3.026-15.538-8.012-21.181l0.030 0.034-147.328-184.256-130.624 97.984-108.352-108.352z" />
<glyph unicode="&#xe94c;" glyph-name="d-caret" d="M512 832l288-320h-576zM224 384h576l-288-320z" />
<glyph unicode="&#xe94d;" glyph-name="delete" d="M160 704h-64c-17.673 0-32 14.327-32 32s14.327 32 32 32v0h256v96.064c0 17.673 14.327 32 32 32v0h256c17.673 0 32-14.327 32-32v0-96.064h256c17.673 0 32-14.327 32-32s-14.327-32-32-32v0h-64v-672c0-17.673-14.327-32-32-32v0h-640c-17.673 0-32 14.327-32 32v0zM608 768v64h-192v-64zM224 64h576v640h-576zM416 192c-17.673 0-32 14.327-32 32v0 320c0 17.673 14.327 32 32 32s32-14.327 32-32v0-320c0-17.673-14.327-32-32-32v0zM608 192c-17.673 0-32 14.327-32 32v0 320c0 17.673 14.327 32 32 32s32-14.327 32-32v0-320c0-17.673-14.327-32-32-32v0z" />
<glyph unicode="&#xe94e;" glyph-name="delete-filled" d="M352 768v96.064c0 17.673 14.327 32 32 32v0h256c17.673 0 32-14.327 32-32v0-96.064h256c17.673 0 32-14.327 32-32s-14.327-32-32-32v0h-832c-17.673 0-32 14.327-32 32s14.327 32 32 32v0zM416 768h192v64h-192zM192 0c-17.673 0-32 14.327-32 32v0 672h704v-672c0-17.673-14.327-32-32-32v0zM416 192c17.673 0 32 14.327 32 32v0 320c0 17.673-14.327 32-32 32s-32-14.327-32-32v0-320c0-17.673 14.327-32 32-32v0zM608 192c17.673 0 32 14.327 32 32v0 320c0 17.673-14.327 32-32 32s-32-14.327-32-32v0-320c0-17.673 14.327-32 32-32v0z" />
<glyph unicode="&#xe94f;" glyph-name="delete-location" d="M288 64h448q32 0 32-32t-32-32h-448q-32 0-32 32t32 32zM800 544c0 159.058-128.942 288-288 288s-288-128.942-288-288v0c0-118.144 94.528-272.128 288-456.576 193.472 184.448 288 338.432 288 456.576zM512 0c-234.688 213.312-352 394.688-352 544 0 194.404 157.596 352 352 352s352-157.596 352-352v0c0-149.312-117.312-330.688-352-544zM384 576h256q32 0 32-32t-32-32h-256q-32 0-32 32t32 32z" />
<glyph unicode="&#xe950;" glyph-name="dessert" d="M128 544v48c0 0.003 0 0.008 0 0.012 0 79.529 64.471 144 144 144 8.706 0 17.232-0.773 25.512-2.253l-0.872 0.129c27.835 94.359 113.692 162.052 215.36 162.052s187.525-67.693 214.958-160.467l0.402-1.585c7.408 1.351 15.934 2.124 24.64 2.124 79.529 0 144-64.471 144-144 0-0.004 0-0.008 0-0.012v0.001-48c0-0.017 0-0.036 0-0.056 0-200.813-154.145-365.624-350.567-382.565l-1.433-0.1v-97.28h-64v97.28c-197.855 17.040-352 181.851-352 382.664 0 0.020 0 0.039 0 0.059v-0.003zM415.104 576.064h193.792c-0.571 4.811-0.896 10.384-0.896 16.033 0 47.87 23.389 90.276 59.362 116.416l0.415 0.287c-17.245 71.204-80.431 123.263-155.776 123.263s-138.531-52.059-155.552-122.169l-0.224-1.094c36.392-26.427 59.783-68.836 59.783-116.708 0-5.67-0.328-11.263-0.966-16.761l0.063 0.669zM342.208 576.064c1.119 4.754 1.76 10.213 1.76 15.822 0 39.765-32.235 72-72 72s-72-32.235-72-72c0-5.609 0.641-11.068 1.855-16.308l-0.095 0.485zM681.792 576.064h140.416c1.119 4.754 1.76 10.213 1.76 15.822 0 39.765-32.235 72-72 72s-72-32.235-72-72c0-5.609 0.641-11.068 1.855-16.308l-0.095 0.485zM512 224c165.483 0.001 301.627 125.614 318.285 286.693l0.115 1.371h-636.8c16.773-162.45 152.917-288.063 318.4-288.064v0zM384 63.936h256c17.673 0 32-14.327 32-32s-14.327-32-32-32v0h-256c-17.673 0-32 14.327-32 32s14.327 32 32 32v0z" />
<glyph unicode="&#xe951;" glyph-name="discount" d="M224 256h576v385.664l-247.488 202.496c-10.939 8.998-25.089 14.454-40.512 14.454s-29.573-5.456-40.623-14.543l0.111 0.088-247.488-202.496zM224 192v-128h576v128zM593.024 893.696l259.2-212.096c7.203-5.907 11.766-14.804 11.776-24.766v-624.834c0-17.673-14.327-32-32-32v0h-640c-17.673 0-32 14.327-32 32v0 624.832c0 0.006 0 0.014 0 0.021 0 9.947 4.538 18.834 11.657 24.703l0.055 0.044 259.2 212.096c21.884 18.013 50.195 28.935 81.056 28.935s59.172-10.922 81.277-29.111l-0.221 0.176zM512 512c35.346 0 64 28.654 64 64s-28.654 64-64 64v0c-35.346 0-64-28.654-64-64s28.654-64 64-64v0zM512 448c-70.692 0-128 57.308-128 128s57.308 128 128 128v0c70.692 0 128-57.308 128-128s-57.308-128-128-128v0z" />
<glyph unicode="&#xe952;" glyph-name="dish" d="M480 702.848v65.152h-96c-17.673 0-32 14.327-32 32s14.327 32 32 32v0h256c17.673 0 32-14.327 32-32s-14.327-32-32-32v0h-96v-65.152c233.316-17.153 416.113-210.661 416.113-446.864 0-22.574-1.67-44.758-4.892-66.435l0.299 2.451h-887.040c-2.923 19.227-4.593 41.41-4.593 63.984 0 236.203 182.796 429.711 414.641 446.777l1.472 0.087zM128 256h768c0 212.077-171.923 384-384 384s-384-171.923-384-384v0zM96 128h832c17.673 0 32-14.327 32-32s-14.327-32-32-32v0h-832c-17.673 0-32 14.327-32 32s14.327 32 32 32v0z" />
<glyph unicode="&#xe953;" glyph-name="dish-dot" d="M384.064 685.44l0.064 50.688c0.073 70.637 57.352 127.872 128 127.872v0c70.528 0 127.68-57.152 127.68-127.68v-50.752c186.7-56.925 320.184-227.635 320.184-429.521 0-22.596-1.672-44.801-4.899-66.499l0.3 2.452h-886.848c-2.92 19.219-4.587 41.395-4.587 63.96 0 201.835 133.416 372.509 316.868 428.644l3.175 0.836zM96 128h832c17.673 0 32-14.327 32-32s-14.327-32-32-32v0h-832c-17.673 0-32 14.327-32 32s14.327 32 32 32v0zM128 256h768c0 212.077-171.923 384-384 384s-384-171.923-384-384v0zM575.808 704v32.32c0 35.169-28.511 63.68-63.68 63.68v0c-35.324 0-63.964-28.617-64-63.932v-32.068z" />
<glyph unicode="&#xe954;" glyph-name="document" d="M832 576h-256v256h-384v-768h640zM805.504 640l-165.504 165.504v-165.504zM160 896h480l256-256v-608c0-17.673-14.327-32-32-32v0h-704c-17.673 0-32 14.327-32 32v0 832c0 17.673 14.327 32 32 32v0zM320 448h384v-64h-384zM320 640h160v-64h-160zM320 256h384v-64h-384z" />
<glyph unicode="&#xe955;" glyph-name="document-add" d="M832 576h-256v256h-384v-768h640zM805.504 640l-165.504 165.504v-165.504zM160 896h480l256-256v-608c0-17.673-14.327-32-32-32v0h-704c-17.673 0-32 14.327-32 32v0 832c0 17.673 14.327 32 32 32v0zM480 384v128h64v-128h128v-64h-128v-128h-64v128h-128v64z" />
<glyph unicode="&#xe956;" glyph-name="document-checked" d="M805.504 640l-165.504 165.504v-165.504zM832 576h-256v256h-384v-768h640zM160 896h480l256-256v-608c0-17.673-14.327-32-32-32v0h-704c-17.673 0-32 14.327-32 32v0 832c0 17.673 14.327 32 32 32v0zM478.4 313.856l180.992 180.992 45.248-45.248-226.24-226.24-158.4 158.336 45.248 45.312z" />
<glyph unicode="&#xe957;" glyph-name="document-copy" d="M128 640v-576h576v576zM96 704h640c17.673 0 32-14.327 32-32v0-640c0-17.673-14.327-32-32-32v0h-640c-17.673 0-32 14.327-32 32v0 640c0 17.673 14.327 32 32 32v0zM960 864v-704c0-17.673-14.327-32-32-32v0h-96v64h64v640h-512v-64h-64v96c0 17.673 14.327 32 32 32v0h576c17.673 0 32-14.327 32-32v0zM256 288h320v-64h-320zM256 480h320v-64h-320z" />
<glyph unicode="&#xe958;" glyph-name="document-delete" d="M805.504 640l-165.504 165.504v-165.504zM832 576h-256v256h-384v-768h640zM160 896h480l256-256v-608c0-17.673-14.327-32-32-32v0h-704c-17.673 0-32 14.327-32 32v0 832c0 17.673 14.327 32 32 32v0zM468.992 349.696l-90.496 90.624 45.248 45.248 90.56-90.496 90.496 90.432 45.248-45.248-90.496-90.56 90.496-90.496-45.248-45.248-90.496 90.496-90.56-90.496-45.248 45.248z" />
<glyph unicode="&#xe959;" glyph-name="document-remove" d="M805.504 640l-165.504 165.504v-165.504zM832 576h-256v256h-384v-768h640zM160 896h480l256-256v-608c0-17.673-14.327-32-32-32v0h-704c-17.673 0-32 14.327-32 32v0 832c0 17.673 14.327 32 32 32v0zM352 384h320v-64h-320z" />
<glyph unicode="&#xe95a;" glyph-name="download" d="M160 128h704c17.673 0 32-14.327 32-32s-14.327-32-32-32v0h-704c-17.673 0-32 14.327-32 32s14.327 32 32 32v0zM544 381.696l236.288 236.352 45.248-45.248-316.736-316.8-316.8 316.8 45.248 45.248 242.752-242.752v456.704h64z" />
<glyph unicode="&#xe95b;" glyph-name="drizzling" d="M739.328 668.672l-35.2 6.592-12.8 33.408c-28.436 72.752-97.985 123.349-179.351 123.349-89.929 0-165.423-61.806-186.32-145.257l-0.281-1.324-9.92-40.896-41.472-7.040c-83.534-14.856-146.155-86.887-146.24-173.559v-0.009c0-97.28 78.72-175.936 175.808-175.936h400c0.054 0 0.119 0 0.183 0 106.039 0 192 85.961 192 192 0 93.452-66.765 171.31-155.198 188.477l-1.209 0.196zM959.552 480c0-141.385-114.615-256-256-256v0h-400c-132.442 0.001-239.807 107.366-239.808 239.808v0c0.013 118.288 85.485 216.609 198.038 236.587l1.45 0.213c28.328 112.934 128.945 195.239 248.785 195.239 108.42 0 201.107-67.366 238.485-162.524l0.602-1.739c119.476-23.215 208.441-127.009 208.448-251.583v-0.001zM288 160h64v-64h-64zM480 160h64v-64h-64zM384 64h64v-64h-64zM576 64h64v-64h-64zM672 160h64v-64h-64z" />
<glyph unicode="&#xe95c;" glyph-name="edit" d="M832 448c0 17.673 14.327 32 32 32s32-14.327 32-32v0-352c0-17.673-14.327-32-32-32v0h-704c-17.673 0-32 14.327-32 32v0 704c0 17.673 14.327 32 32 32v0h352c17.673 0 32-14.327 32-32s-14.327-32-32-32v0h-320v-640h640zM469.952 405.76l52.8 7.552 324.352 324.288c6.027 5.827 9.769 13.985 9.769 23.017 0 17.673-14.327 32-32 32-9.032 0-17.19-3.742-23.009-9.76l-324.425-324.297-7.552-52.8zM892.352 828.16c17.386-17.375 28.14-41.383 28.14-67.904s-10.754-50.529-28.139-67.903l-331.841-331.841c-4.743-4.76-10.975-8.035-17.937-9.067l-0.175-0.021-105.6-15.104c-1.367-0.207-2.944-0.325-4.549-0.325-17.673 0-32 14.327-32 32 0 1.605 0.118 3.182 0.346 4.724l-0.021-0.175 15.104 105.6c1.035 7.131 4.288 13.362 9.025 18.113l331.903 331.839c17.372 17.366 41.367 28.107 67.872 28.107s50.5-10.741 67.872-28.108v0z" />
<glyph unicode="&#xe95d;" glyph-name="edit-pen" d="M199.040 287.36l193.984-112 224 387.968-193.92 112-224-388.032zM175.168 227.2l32.896-148.288 144.896 45.696zM455.040 730.752l193.92-112 56.704 98.112-193.984 112zM104.32 251.2l384 665.024 304.768-175.936-383.872-665.088-248.448-78.336zM488.32-3.072v64h448v-64z" />
<glyph unicode="&#xe95e;" glyph-name="eleme" d="M300.032 771.2c174.72 113.28 408 63.36 522.24-109.44 5.76-10.56 11.52-20.16 17.28-30.72v-0.96c1.094-2.549 1.73-5.516 1.73-8.631 0-7.499-3.685-14.137-9.343-18.203l-0.067-0.046-352.32-228.48c-9.6-6.72-22.080-3.84-28.8 5.76l-18.24 27.84c-5.354 8.272-8.536 18.382-8.536 29.236 0 19.053 9.807 35.816 24.648 45.516l0.208 0.128 225.6 146.88c9.6 6.72 12.48 19.2 5.76 28.8-0.96 1.92-1.92 3.84-3.84 4.8-45.812 37.751-105.097 60.643-169.729 60.643-54.337 0-104.896-16.181-147.119-43.987l1.008 0.623c-123.84-81.6-159.36-247.68-78.72-371.52 48.559-73.813 131.020-121.867 224.706-121.867 54.223 0 104.687 16.097 146.872 43.774l-1.018-0.627c8.272 5.354 18.382 8.536 29.236 8.536 19.053 0 35.816-9.807 45.516-24.648l0.128-0.208 17.28-26.88c5.76-9.6 3.84-21.12-4.8-27.84-8.64-7.68-18.24-14.4-28.8-21.12-58.071-38.202-129.27-60.937-205.78-60.937-131.873 0-247.97 67.544-315.584 169.924l-0.877 1.413c-113.28 174.72-63.36 408 111.36 522.24zM826.112 465.92c3.187 1.857 7.015 2.953 11.099 2.953 7.185 0 13.577-3.392 17.663-8.662l0.038-0.051 23.040-35.52c6.429-9.737 10.257-21.683 10.257-34.524 0-21.993-11.228-41.363-28.264-52.691l-0.233-0.145-35.52-23.040c-9.6-6.72-22.080-3.84-28.8 5.76l-46.080 71.040c-6.72 9.6-3.84 22.080 5.76 28.8z" />
<glyph unicode="&#xe95f;" glyph-name="eleme-filled" d="M176 896h672c61.824 0 112-50.176 112-112v-672c0-61.856-50.144-112-112-112v0h-672c-61.856 0-112 50.144-112 112v0 672c0 61.824 50.176 112 112 112zM326.528 722.432c-152.896-99.968-196.544-304.064-97.408-456.96 59.929-90.833 161.523-149.944 276.924-149.944 66.937 0 129.228 19.888 181.288 54.076l-1.252-0.772c9.216 5.888 17.6 11.776 25.152 18.56 4.348 3.368 7.12 8.589 7.12 14.458 0 3.663-1.080 7.074-2.939 9.932l0.043-0.071-15.104 23.488c-8.601 13.168-23.269 21.748-39.941 21.748-9.503 0-18.354-2.787-25.782-7.589l0.186 0.113c-36.015-23.661-80.162-37.741-127.596-37.741-81.986 0-154.147 42.063-196.081 105.785l-0.546 0.884c-70.592 108.352-39.488 253.632 68.864 325.12 36.054 23.779 80.281 37.933 127.814 37.933 56.567 0 108.452-20.046 148.938-53.422l-0.401 0.321c1.664-0.832 2.56-2.56 3.392-4.224 5.888-8.384 3.328-19.328-5.12-25.216l-197.248-128.512c-13.177-8.599-21.765-23.272-21.765-39.952 0-9.471 2.769-18.296 7.542-25.709l-0.113 0.188 16-24.384c5.888-8.384 16.768-10.88 25.216-5.056l308.224 199.936c5.005 3.594 8.227 9.398 8.227 15.955 0 2.719-0.554 5.308-1.555 7.661l0.048-0.128v0.896c-4.992 9.216-10.048 17.6-15.104 26.88-99.968 151.168-304.064 194.88-456.96 95.744zM786.88 455.296l-62.208-40.32c-8.32-5.888-10.88-16.768-4.992-25.216l40.32-62.080c5.888-8.448 16.768-11.008 25.152-5.12l31.104 20.16c15.13 10.044 24.968 27.009 24.968 46.272 0 11.235-3.347 21.688-9.097 30.416l0.129-0.208-20.224 31.040c-3.603 4.681-9.207 7.668-15.51 7.668-3.546 0-6.871-0.945-9.737-2.598l0.094 0.050z" />
<glyph unicode="&#xe960;" glyph-name="element-plus" d="M839.7 225.3c0-33.3-17.9-41-17.9-41s-302.1-174.1-322.6-184.3c-10.2-5.1-20.5-5.1-30.7 0 0 0-314.9 184.3-325.1 192-5.1 5.1-10.2 12.8-12.8 20.5v378.9c0 17.9 20.5 28.2 20.5 28.2l314.9 181.8q19.2 7.65 38.4 0s279-161.3 309.8-179.2c17.9-7.7 28.2-25.6 25.6-46.1-0.1 5-0.1-317.5-0.1-350.8zM714.2 588.8c-64 35.8-217.6 125.4-217.6 125.4-7.7 5.1-20.5 5.1-30.7 0l-248.3-143.3s-17.9-10.2-17.9-23v-297c0-5.1 5.1-12.8 7.7-17.9 7.7-5.1 256-148.5 256-148.5 7.7-5.1 17.9-5.1 25.6 0 15.4 7.7 250.9 145.9 250.9 145.9s12.8 5.1 12.8 30.7v74.2l-276.5-169v64c0 17.9 7.7 30.7 20.5 46.1l248.3 148.6c5.1 7.7 10.2 20.5 10.2 30.7v66.6l-279-169v69.1c0 15.4 5.1 30.7 17.9 38.4zM919 824.3c0 5.1-5.1 7.7-7.7 7.7h-58.9v61.4c0 5.1-5.1 5.1-10.2 5.1l-30.7-5.1c-5.1 0-5.1-2.6-5.1-5.1v-56.3h-56.3c-5.1 0-5.1-5.1-7.7-5.1v-38.4h69.1v-64c0-5.1 5.1-5.1 10.2-5.1l30.7 5.1c5.1 0 5.1 2.6 5.1 5.1v56.3h64z" />
<glyph unicode="&#xe961;" glyph-name="expand" d="M128 768h768v-128h-768zM128 512h512v-128h-512zM128 256h768v-128h-768zM704 608l192-160-192-128z" />
<glyph unicode="&#xe962;" glyph-name="failed" d="M557.248 352l135.744 135.744-45.248 45.248-135.68-135.744-135.808 135.68-45.248-45.184 135.744-135.744-135.68-135.68 45.184-45.312 135.744 135.744 135.744-135.744 45.248 45.248-135.68 135.744zM704 768h160v-736h-704v736h160v-64h384zM384 768v96h256v-96z" />
<glyph unicode="&#xe963;" glyph-name="female" d="M512 320c141.385 0 256 114.615 256 256s-114.615 256-256 256v0c-141.385 0-256-114.615-256-256s114.615-256 256-256v0zM512 256c-176.731 0-320 143.269-320 320s143.269 320 320 320v0c176.731 0 320-143.269 320-320s-143.269-320-320-320v0zM512 320q32 0 32-32v-256q0-32-32-32t-32 32v256q0 32 32 32zM352 160h320q32 0 32-32t-32-32h-320q-32 0-32 32t32 32z" />
<glyph unicode="&#xe964;" glyph-name="files" d="M128 576v-448h768v448zM96 640h832c17.673 0 32-14.327 32-32v0-512c0-17.673-14.327-32-32-32v0h-832c-17.673 0-32 14.327-32 32v0 512c0 17.673 14.327 32 32 32v0zM160 768h704v-64h-704zM256 896h512v-64h-512z" />
<glyph unicode="&#xe965;" glyph-name="film" d="M160 800v-704h704v704zM128 864h768c17.673 0 32-14.327 32-32v0-768c0-17.673-14.327-32-32-32v0h-768c-17.673 0-32 14.327-32 32v0 768c0 17.673 14.327 32 32 32v0zM320 672v160h64v-352h256v352h64v-160h160v-64h-160v-128h160v-64h-160v-128h160v-64h-160v-160h-64v352h-256v-352h-64v160h-192v64h192v128h-192v64h192v128h-192v64z" />
<glyph unicode="&#xe966;" glyph-name="filter" d="M384 436.608v-404.608c0.001-17.673 14.327-31.999 32-31.999 5.226 0 10.16 1.253 14.517 3.475l-0.181-0.084 192 96c10.558 5.375 17.664 16.162 17.664 28.608v0 308.608l280.768 343.104c4.512 5.476 7.249 12.563 7.249 20.288 0 17.682-14.334 32.017-32.017 32.017-9.957 0-18.852-4.545-24.724-11.674l-0.044-0.055-288-352c-4.502-5.471-7.232-12.548-7.232-20.262 0-0.009 0-0.018 0-0.027v0.001-300.224l-128-64v364.224c0 0.008 0 0.017 0 0.026 0 7.714-2.73 14.791-7.276 20.317l0.044-0.055-245.248 299.712h508.48c17.673 0 32 14.327 32 32s-14.327 32-32 32v0h-576c-0.006 0-0.014 0-0.021 0-17.673 0-32-14.327-32-32 0-7.726 2.738-14.813 7.297-20.343l-0.044 0.055z" />
<glyph unicode="&#xe967;" glyph-name="finished" d="M280.768 206.272l410.688 586.688c5.804 8.758 15.617 14.455 26.761 14.455 17.673 0 32-14.327 32-32 0-7.208-2.383-13.859-6.405-19.209l0.059 0.082-429.632-613.76c-5.859-8.322-15.425-13.692-26.245-13.692-7.238 0-13.914 2.403-19.275 6.454l0.081-0.058-230.4 172.8c-7.807 5.9-12.8 15.167-12.8 25.6 0 17.673 14.327 32 32 32 7.24 0 13.919-2.404 19.28-6.458l-0.080 0.058zM736 512c-17.673 0-32 14.327-32 32s14.327 32 32 32v0h192c17.673 0 32-14.327 32-32s-14.327-32-32-32v0zM608 320c-17.673 0-32 14.327-32 32s14.327 32 32 32v0h319.936c17.673 0 32-14.327 32-32s-14.327-32-32-32v0zM480 128c-17.673 0-32 14.327-32 32s14.327 32 32 32v0h447.936c17.673 0 32-14.327 32-32s-14.327-32-32-32v0z" />
<glyph unicode="&#xe968;" glyph-name="first-aid-kit" d="M192 704c-35.346 0-64-28.654-64-64v0-448c0-35.346 28.654-64 64-64v0h640c35.346 0 64 28.654 64 64v0 448c0 35.346-28.654 64-64 64v0zM192 768h640c70.692 0 128-57.308 128-128v0-448c0-70.692-57.308-128-128-128v0h-640c-70.692 0-128 57.308-128 128v0 448c0 70.692 57.308 128 128 128v0zM544 448h96c17.673 0 32-14.327 32-32s-14.327-32-32-32v0h-96v-96c0-17.673-14.327-32-32-32s-32 14.327-32 32v0 96h-96c-17.673 0-32 14.327-32 32s14.327 32 32 32v0h96v96c0 17.673 14.327 32 32 32s32-14.327 32-32v0zM352 832v-64h320v64zM320 896h384c17.673 0 32-14.327 32-32v0-128c0-17.673-14.327-32-32-32v0h-384c-17.673 0-32 14.327-32 32v0 128c0 17.673 14.327 32 32 32v0z" />
<glyph unicode="&#xe969;" glyph-name="flag" d="M288 832h608l-160-256 160-256h-608v-320h-96v896h96z" />
<glyph unicode="&#xe96a;" glyph-name="fold" d="M896 768h-768v-128h768zM896 512h-512v-128h512zM896 256h-768v-128h768zM320 576l-192-128 192-128z" />
<glyph unicode="&#xe96b;" glyph-name="folder" d="M128 768v-640h768v512h-410.24l-128.256 128zM96 832h287.872l128.384-128h415.744c17.673 0 32-14.327 32-32v0-576c0-17.673-14.327-32-32-32v0h-832c-17.673 0-32 14.327-32 32v0 704c0 17.673 14.327 32 32 32v0z" />
<glyph unicode="&#xe96c;" glyph-name="folder-add" d="M128 768v-640h768v512h-410.24l-128.256 128zM96 832h287.872l128.384-128h415.744c17.673 0 32-14.327 32-32v0-576c0-17.673-14.327-32-32-32v0h-832c-17.673 0-32 14.327-32 32v0 704c0 17.673 14.327 32 32 32v0zM480 416v128h64v-128h128v-64h-128v-128h-64v128h-128v64z" />
<glyph unicode="&#xe96d;" glyph-name="folder-checked" d="M128 768v-640h768v512h-410.24l-128.256 128zM96 832h287.872l128.384-128h415.744c17.673 0 32-14.327 32-32v0-576c0-17.673-14.327-32-32-32v0h-832c-17.673 0-32 14.327-32 32v0 704c0 17.673 14.327 32 32 32v0zM510.080 329.856l180.992 180.992 45.248-45.248-226.24-226.24-158.4 158.336 45.248 45.312z" />
<glyph unicode="&#xe96e;" glyph-name="folder-delete" d="M128 768v-640h768v512h-410.24l-128.256 128zM96 832h287.872l128.384-128h415.744c17.673 0 32-14.327 32-32v0-576c0-17.673-14.327-32-32-32v0h-832c-17.673 0-32 14.327-32 32v0 704c0 17.673 14.327 32 32 32v0zM466.752 384l-90.496 90.496 45.248 45.248 90.496-90.496 90.496 90.496 45.248-45.248-90.496-90.496 90.496-90.496-45.248-45.248-90.496 90.496-90.496-90.496-45.248 45.248z" />
<glyph unicode="&#xe96f;" glyph-name="folder-opened" d="M878.080 512h-636.16l-96-384h636.16zM832 576v64h-346.24l-128.256 128h-229.504v-448l57.92 231.744c3.588 14.038 16.121 24.252 31.040 24.256v0zM807.040 64h-711.040c-17.673 0-32 14.327-32 32v0 704c0 17.673 14.327 32 32 32v0h287.872l128.384-128h351.744c17.673 0 32-14.327 32-32v0-96h23.040c17.669-0.005 31.991-14.33 31.991-32 0-2.75-0.347-5.419-0.999-7.966l0.048 0.222-112-448c-3.588-14.038-16.121-24.252-31.040-24.256v0z" />
<glyph unicode="&#xe970;" glyph-name="folder-remove" d="M128 768v-640h768v512h-410.24l-128.256 128zM96 832h287.872l128.384-128h415.744c17.673 0 32-14.327 32-32v0-576c0-17.673-14.327-32-32-32v0h-832c-17.673 0-32 14.327-32 32v0 704c0 17.673 14.327 32 32 32v0zM352 416h320v-64h-320z" />
<glyph unicode="&#xe971;" glyph-name="food" d="M128 607.424v0.576c0 0.001 0 0.003 0 0.004 0 159.058 128.942 288 288 288 79.244 0 151.012-32.005 203.085-83.793l-0.013 0.013c24.787 12.506 54.027 19.829 84.978 19.829 106.039 0 192-85.961 192-192 0-11.414-0.996-22.596-2.906-33.462l0.168 1.153c32.709-3.126 58.086-30.462 58.086-63.726 0-3.713-0.316-7.353-0.923-10.893l0.054 0.379c-28.928-174.016-100.48-284.16-214.528-330.496v-43.008c0-53.019-42.981-96-96-96v0h-256c-53.019 0-96 42.981-96 96v0 43.008c-114.048 46.336-185.6 156.48-214.528 330.496-0.545 3.138-0.857 6.752-0.857 10.438 0 32.308 23.94 59.025 55.048 63.379l0.337 0.039zM192 608h64c0 88.366 71.634 160 160 160s160-71.634 160-160v0h64c0 123.712-100.288 224-224 224s-224-100.288-224-224v0zM320 608h192c0 53.019-42.981 96-96 96s-96-42.981-96-96v0zM759.424 608h68.544c2.535 9.528 3.991 20.466 3.991 31.744 0 70.729-57.253 128.086-127.942 128.256h-0.016c-15.36 0-29.952-2.688-43.52-7.616 11.328-18.176 20.672-37.76 27.84-58.304 4.635 1.198 9.956 1.886 15.438 1.886 35.417 0 64.128-28.711 64.128-64.128 0-11.714-3.141-22.694-8.626-32.145l0.165 0.307zM672 192h-320v-32c0-17.673 14.327-32 32-32v0h256c17.673 0 32 14.327 32 32v0zM329.472 256h365.056c101.504 32.64 165.76 124.928 192.896 288h-750.848c27.136-163.072 91.392-255.36 192.896-288z" />
<glyph unicode="&#xe972;" glyph-name="football" d="M512 0c-247.424 0-448 200.576-448 448s200.576 448 448 448v0c247.424 0 448-200.576 448-448s-200.576-448-448-448v0zM512 64c212.077 0 384 171.923 384 384s-171.923 384-384 384v0c-212.077 0-384-171.923-384-384s171.923-384 384-384v0zM186.816 691.712c16 16.384 31.616 31.744 46.976 46.080 17.472-30.656 39.808-58.112 65.984-81.28l-32.512-56.448c-31.312 26.060-57.974 56.284-79.519 90.088l-0.929 1.56zM840.512 697.024c-23.060-37.583-50.88-69.6-83.15-96.453l-0.626-0.507-32.512 56.384c27.159 24.196 49.978 52.523 67.64 84.124l0.84 1.636c15.552-14.080 31.488-29.12 47.808-45.184zM465.984 514.752l11.136 63.104c10.465-1.2 22.592-1.885 34.88-1.885s24.415 0.685 36.347 2.018l-1.467-0.133 11.136-63.104c-13.814-1.743-29.799-2.738-46.016-2.738s-32.202 0.995-47.897 2.927l1.881-0.189zM403.264 527.552c-31.773 9.541-59.373 21.75-85.049 36.877l1.785-0.973 32 55.424c17.856-10.548 38.517-19.936 60.202-27.068l2.262-0.644-11.2-63.488zM704.064 563.392c-23.908-14.137-51.532-26.326-80.624-35.136l-2.704-0.704-11.2 63.552c23.947 7.776 44.608 17.164 63.969 28.529l-1.505-0.817 32-55.424zM183.296 198.592c23.092 37.717 50.979 69.842 83.342 96.773l0.626 0.507 32.512-56.32c-26.88-23.936-49.856-52.352-67.52-84.032-16 13.44-32.32 27.712-48.96 43.072zM840.832 198.464c-14.637-13.502-30.596-27.575-46.862-41.296l-2.162-1.776c-18.345 32.588-40.851 60.377-67.26 83.876l-0.324 0.284 32.512 56.32c33.216-27.456 61.696-60.352 84.096-97.408zM465.92 381.248c13.814 1.743 29.799 2.738 46.016 2.738s32.202-0.995 47.897-2.927l-1.881 0.189-11.136-63.104c-10.465 1.2-22.592 1.885-34.88 1.885s-24.415-0.685-36.347-2.018l1.467 0.133zM403.2 368.448l11.2-63.552c-23.947-7.776-44.608-17.164-63.969-28.529l1.505 0.817-31.936 55.424c23.89 14.132 51.491 26.321 80.56 35.135l2.704 0.705zM704 332.608l-32-55.424c-17.879 10.568-38.564 19.957-60.278 27.074l-2.25 0.638 11.2 63.488c29.44-8.64 57.28-20.736 83.264-35.776z" />
<glyph unicode="&#xe973;" glyph-name="fork-spoon" d="M256 549.696v314.304c0 17.673 14.327 32 32 32s32-14.327 32-32v0-314.304c37.605 13.577 64 48.961 64 90.51 0 0.018 0 0.035 0 0.053v-0.003 223.744c0 17.673 14.327 32 32 32s32-14.327 32-32v0-223.744c0-0.010 0-0.021 0-0.033 0-77.038-54.446-141.36-126.958-156.584l-1.042-0.183v-451.456c0-17.673-14.327-32-32-32s-32 14.327-32 32v0 451.456c-73.554 15.408-128 79.729-128 156.767 0 0.011 0 0.023 0 0.034v-0.002 223.744c0 17.673 14.327 32 32 32s32-14.327 32-32v0-223.744c0-0.015 0-0.033 0-0.050 0-41.549 26.395-76.933 63.332-90.298l0.668-0.211zM672 387.52c-90.816 20.352-160 125.632-160 252.48 0 141.44 85.952 256 192 256s192-114.56 192-256c0-126.848-69.184-232.128-160-252.48v-355.52c0-17.673-14.327-32-32-32s-32 14.327-32 32v0zM704 448c66.048 0 128 82.56 128 192s-61.952 192-128 192-128-82.56-128-192 61.952-192 128-192z" />
<glyph unicode="&#xe974;" glyph-name="fries" d="M608 736v64c0 17.673-14.327 32-32 32s-32-14.327-32-32v0-336h26.88c13.927 0.012 26.811 4.472 37.31 12.034l-0.19-0.13zM709.12 576c-13.927-0.012-26.811-4.472-37.31-12.034l0.19 0.13v11.904h64v160c0 17.673-14.327 32-32 32s-32-14.327-32-32v0-160zM784 576c51.321-0.002 92.925-41.606 92.925-92.928 0-6.065-0.581-11.995-1.691-17.736l0.094 0.584-60.672-323.584c-8.626-44.878-47.573-78.323-94.335-78.336h-416.641c-46.763 0.013-85.71 33.458-94.239 77.733l-0.097 0.603-60.672 323.584c-1.016 5.157-1.597 11.087-1.597 17.152 0 51.322 41.603 92.926 92.925 92.928h-16v160c0.008 53.014 42.985 95.987 96 95.987 44.020 0 81.12-29.628 92.446-70.031l0.162-0.676c10.483 4.293 22.65 6.784 35.398 6.784 11.47 0 22.468-2.017 32.661-5.715l-0.666 0.211v37.44c0.008 53.014 42.985 95.987 96 95.987 44.020 0 81.12-29.628 92.446-70.031l0.162-0.676c10.483 4.279 22.648 6.762 35.392 6.762 53.019 0 96-42.981 96-96 0-0.015 0-0.030 0-0.044v0.002-160zM670.784 448c-23.651-29.364-59.601-47.995-99.903-48h-117.761c-40.279 0.026-76.202 18.652-99.648 47.754l-0.192 0.246h-1.28v1.536c-3.398 4.351-6.698 9.243-9.655 14.359l-0.329 0.617-27.136 47.488h-74.88c-0.017 0-0.036 0-0.056 0-15.976 0-28.928-12.952-28.928-28.928 0-1.901 0.183-3.76 0.534-5.559l-0.030 0.182 29.568-157.696h541.824l29.568 157.696c0.321 1.616 0.504 3.475 0.504 5.376 0 15.976-12.952 28.928-28.928 28.928-0.020 0-0.039 0-0.059 0h-74.877l-27.136-47.488c-3.305-5.74-6.605-10.632-10.208-15.276l0.224 0.3v-1.536zM480 672c0 17.673-14.327 32-32 32s-32-14.327-32-32v0-196.096c10.309-7.432 23.193-11.892 37.117-11.904h26.883zM352 576v160c0 17.673-14.327 32-32 32s-32-14.327-32-32v0-160zh90.88c13.927-0.012 26.811-4.472 37.31-12.034l-0.19 0.13zM253.12 256l19.072-101.888c2.876-14.962 15.863-26.112 31.454-26.112 0.012 0 0.024 0 0.036 0h416.638c0.010 0 0.022 0 0.034 0 15.591 0 28.578 11.15 31.421 25.911l0.032 0.201 19.072 101.888z" />
<glyph unicode="&#xe975;" glyph-name="full-screen" d="M160 863.936l192-0.192c17.673 0 32-14.327 32-32s-14.327-32-32-32v0l-192 0.192v-191.936c0-17.673-14.327-32-32-32s-32 14.327-32 32v0 256h64zM160 32.064v-0.064h-64v256c0 17.673 14.327 32 32 32s32-14.327 32-32v0-191.936l192 0.192c17.673 0 32-14.327 32-32s-14.327-32-32-32v0zM864 863.936v0.064h64v-256c0-17.673-14.327-32-32-32s-32 14.327-32 32v0 191.936l-192-0.192c-17.673 0-32 14.327-32 32s14.327 32 32 32v0zM864 32.064l-192 0.192c-17.673 0-32 14.327-32 32s14.327 32 32 32v0l192-0.192v191.936c0 17.673 14.327 32 32 32s32-14.327 32-32v0-256h-64z" />
<glyph unicode="&#xe976;" glyph-name="goblet" d="M544 321.6v-257.6h96c17.673 0 32-14.327 32-32s-14.327-32-32-32v0h-256c-17.673 0-32 14.327-32 32s14.327 32 32 32v0h96v257.6c-162.421 16.804-288 152.935-288 318.396 0 0.001 0 0.003 0 0.004v0c0 85.632 21.312 170.944 64 256h512c42.688-64.32 64-149.632 64-256 0-0.001 0-0.003 0-0.004 0-165.461-125.579-301.592-286.627-318.281l-1.373-0.115zM256 640c0-141.385 114.615-256 256-256s256 114.615 256 256v0c0 78.592-12.608 142.4-36.928 192h-434.24c-27.328-64.384-40.832-128.256-40.832-192z" />
<glyph unicode="&#xe977;" glyph-name="goblet-full" d="M256 640h512c0 78.592-12.608 142.4-36.928 192h-434.24c-27.328-64.384-40.832-128.256-40.832-192zM759.936 576h-495.872c29.533-111.234 129.318-191.868 247.936-191.868s218.403 80.635 247.531 190.080l0.405 1.788zM544 321.6v-257.6h96c17.673 0 32-14.327 32-32s-14.327-32-32-32v0h-256c-17.673 0-32 14.327-32 32s14.327 32 32 32v0h96v257.6c-162.421 16.804-288 152.935-288 318.396 0 0.001 0 0.003 0 0.004v0c0 85.632 21.312 170.944 64 256h512c42.688-64.32 64-149.632 64-256 0-0.001 0-0.003 0-0.004 0-165.461-125.579-301.592-286.627-318.281l-1.373-0.115z" />
<glyph unicode="&#xe978;" glyph-name="goblet-square" d="M544 321.088v-257.088h96c17.673 0 32-14.327 32-32s-14.327-32-32-32v0h-256c-17.673 0-32 14.327-32 32s14.327 32 32 32v0h96v257.152c-229.376 15.424-288 196.352-288 319.168v223.68c0 17.673 14.327 32 32 32v0h576c17.673 0 32-14.327 32-32v0-224c0-122.816-58.624-303.68-288-318.912zM256 640.32c0-149.568 80-256.192 256-256.256 176.128-0.064 256 106.368 256 255.936v192h-512z" />
<glyph unicode="&#xe979;" glyph-name="goblet-square-full" d="M256 689.088c10.048-6.72 22.464-14.912 28.992-18.624 32.080-19.311 70.805-30.735 112.199-30.735 0.898 0 1.794 0.005 2.689 0.016l-0.136-0.001c30.592 0 49.408 9.472 91.072 41.152l0.64 0.448c52.928 40.32 82.368 55.040 132.288 54.656 55.552-0.448 99.584-20.8 142.72-57.408l1.536-1.28v154.688h-512zM256.96 612.8c9.408-134.976 89.92-228.672 255.040-228.8 157.44-0.064 237.952 85.056 253.248 209.984-14.83 12.477-27.917 24.144-40.672 36.16l0.48-0.448c-32.704 27.776-63.36 41.92-101.888 42.24-31.552 0.256-50.624-9.28-93.12-41.6l-0.576-0.448c-52.096-39.616-81.024-54.208-129.792-54.208-54.784 0-100.48 13.376-142.784 37.056zM480 321.152c-229.376 15.424-288 196.352-288 319.168v223.68c0 17.673 14.327 32 32 32v0h576c17.673 0 32-14.327 32-32v0-224c0-122.816-58.624-303.68-288-318.912v-257.088h96c17.673 0 32-14.327 32-32s-14.327-32-32-32v0h-256c-17.673 0-32 14.327-32 32s14.327 32 32 32v0h96z" />
<glyph unicode="&#xe97a;" glyph-name="gold-medal" d="M772.13 507.16l53.86 351.81c1.32 10.010-1.17 18.68-7.49 26.020s-14.15 11.010-23.49 11.010l-566.080 0.010c-9.33 0-17.15-3.67-23.49-11.010s-8.83-16.010-7.49-26.020l53.87-351.89c-38.28-52.82-58.23-115.18-59.82-187.090 2-90.67 33.17-166.17 93.5-226.5s135.83-91.49 226.5-93.5c90.67 2 166.17 33.17 226.5 93.5 60.33 60.34 91.49 135.83 93.5 226.5-1.59 71.94-21.56 134.32-59.87 187.16zM640.010 832h117.020l-39.010-254.020c-20.75 10.64-40.74 19.73-59.94 27.28-5.92 3-11.95 5.8-18.080 8.41v218.33zM576 832v-198.76c-13.18 2.58-26.74 4.43-40.67 5.55-8.070 0.8-15.85 1.2-23.33 1.2-10.54 0-21.090-0.66-31.64-1.96-12.754-1.308-23.795-2.997-34.66-5.175l2.3 0.385v198.76zM384 832h0.040v-218.3c-6.22-2.66-12.34-5.5-18.36-8.56-19.13-7.54-39.020-16.6-59.66-27.16l-39.010 254.020zM692.99 139.010c-48-48-108.33-73-180.99-75.010-72.66 2.010-132.99 27.010-180.99 75.010s-73 108.33-75.010 180.99c2.010 72.66 27.010 132.99 75.010 180.99 19.67 19.67 41.41 35.47 65.22 47.41 38.33 15.040 71.15 23.92 98.44 26.65 5.070 0.41 10.2 0.7 15.39 0.88 0.63 0.010 1.28 0.030 1.91 0.030 0.66 0 1.35-0.030 2.020-0.040 5.11-0.17 10.15-0.46 15.13-0.86 27.4-2.71 60.37-11.65 98.91-26.79 23.71-11.93 45.36-27.69 64.96-47.29 48-48 73-108.33 75.010-180.99-2.010-72.65-27.010-132.98-75.010-180.98zM544 480h-128v-64h64v-192h-64v-64h192v64h-64z" />
<glyph unicode="&#xe97b;" glyph-name="goods" d="M320 672v22.336c0 110.976 85.504 201.664 192 201.664s192-90.688 192-201.664v-22.4h131.072c16.533-0.017 30.129-12.569 31.796-28.663l0.012-0.137 57.6-576c0.102-0.96 0.16-2.073 0.16-3.2 0-17.662-14.309-31.982-31.967-32h-761.346c-17.66 0.018-31.968 14.338-31.968 32 0 1.127 0.058 2.24 0.172 3.337l-0.012-0.137 57.6 576c1.679 16.231 15.275 28.783 31.806 28.8h131.074zM384 672h256v22.336c0 76.416-57.728 137.664-128 137.664s-128-61.248-128-137.664v-22.4zM320 608h-102.080l-51.2-512h690.56l-51.264 512h-102.016v-96c0-17.673-14.327-32-32-32s-32 14.327-32 32v0 96h-256v-96c0-17.673-14.327-32-32-32s-32 14.327-32 32v0z" />
<glyph unicode="&#xe97c;" glyph-name="goods-filled" d="M192 608h640l64-544h-768zM320 384h64v128h-64zM640 384h64v128h-64zM384 672h-64c0 106.039 85.961 192 192 192s192-85.961 192-192v0h-64c0 70.692-57.308 128-128 128s-128-57.308-128-128v0z" />
<glyph unicode="&#xe97d;" glyph-name="grape" d="M544 764.8c39.484-8.262 72.847-30.14 95.708-60.396l0.292-0.404c29.501 39.024 75.828 63.979 127.984 63.979 88.366 0 160-71.634 160-160 0-81.933-61.585-149.482-140.989-158.882l-0.755-0.073c8.727-19.128 13.814-41.488 13.814-65.037 0-81.958-61.622-149.523-141.062-158.891l-0.753-0.072c8.693-19.095 13.76-41.413 13.76-64.914 0-88.366-71.634-160-160-160s-160 71.634-160 160c0 23.501 5.067 45.819 14.168 65.921l-0.408-1.006c-80.192 9.44-141.814 77.005-141.814 158.963 0 23.548 5.087 45.909 14.222 66.041l-0.408-1.005c-80.16 9.473-141.744 77.022-141.744 158.955 0 88.366 71.634 160 160 160 52.156 0 98.484-24.955 127.693-63.577l0.291-0.402c23.153 30.659 56.515 52.538 94.958 60.617l1.042 0.183v67.2h-64c-17.673 0-32 14.327-32 32s14.327 32 32 32v0h192c17.673 0 32-14.327 32-32s-14.327-32-32-32v0h-64zM512 512c53.019 0 96 42.981 96 96s-42.981 96-96 96v0c-53.019 0-96-42.981-96-96s42.981-96 96-96v0zM256 512c53.019 0 96 42.981 96 96s-42.981 96-96 96v0c-53.019 0-96-42.981-96-96s42.981-96 96-96v0zM384 288c53.019 0 96 42.981 96 96s-42.981 96-96 96v0c-53.019 0-96-42.981-96-96s42.981-96 96-96v0zM512 64c53.019 0 96 42.981 96 96s-42.981 96-96 96v0c-53.019 0-96-42.981-96-96s42.981-96 96-96v0zM640 288c53.019 0 96 42.981 96 96s-42.981 96-96 96v0c-53.019 0-96-42.981-96-96s42.981-96 96-96v0zM768 512c53.019 0 96 42.981 96 96s-42.981 96-96 96v0c-53.019 0-96-42.981-96-96s42.981-96 96-96v0z" />
<glyph unicode="&#xe97e;" glyph-name="grid" d="M640 576v-256h-256v256zM704 576h192v-256h-192zM640 64h-256v192h256zM704 64v192h192v-192zM640 832v-192h-256v192zM704 832h192v-192h-192zM320 576v-256h-192v256zM320 64h-192v192h192zM320 832v-192h-192v192z" />
<glyph unicode="&#xe97f;" glyph-name="guide" d="M640 352h-64v192h64zM640 192v-160c0-17.673-14.327-32-32-32v0h-192c-17.673 0-32 14.327-32 32v0 160h64v-128h128v128zM384 352v192h64v-192zM640 704h-64v128h-128v-128h-64v160c0 17.673 14.327 32 32 32v0h192c17.673 0 32-14.327 32-32v0zM220.8 704l-71.232-80 71.168-80h547.264v160zM206.4 768h593.6c17.673 0 32-14.327 32-32v0-224c0-17.673-14.327-32-32-32v0h-593.6c-0.003 0-0.006 0-0.009 0-9.503 0-18.039 4.142-23.9 10.72l-0.028 0.032-99.584 112c-5.011 5.623-8.073 13.078-8.073 21.248s3.062 15.625 8.1 21.28l-0.028-0.032 99.584 112c5.889 6.61 14.424 10.752 23.927 10.752 0.003 0 0.006 0 0.009 0h-0.001zM885.184 272l-71.104-80h-547.264v160h547.2zM828.416 416h-593.536c-17.673 0-32-14.327-32-32v0-224c0-17.673 14.327-32 32-32v0h593.6c0.003 0 0.006 0 0.009 0 9.503 0 18.039 4.142 23.9 10.72l0.028 0.032 99.584 112c5.011 5.623 8.073 13.078 8.073 21.248s-3.062 15.625-8.1 21.28l0.028-0.032-99.584 112c-5.889 6.61-14.424 10.752-23.927 10.752-0.003 0-0.006 0-0.009 0h0.001z" />
<glyph unicode="&#xe980;" glyph-name="handbag" d="M887.010 695.010c-6 5.99-13.67 8.99-23.010 8.99h-160c-1.34 54.68-20.010 100.010-56 136s-81.32 54.66-136 56c-54.68-1.34-100.010-20.010-136-56s-54.66-81.32-56-136h-160c-9.35 0-17.020-3-23.010-8.99-5.99-6-8.99-13.67-8.99-23.010v-640c0-9.35 2.99-17.020 8.99-23.010s13.67-8.99 23.010-8.99h704c9.35 0 17.020 2.99 23.010 8.99s8.99 13.67 8.99 23.010v640c0 9.35-2.99 17.020-8.99 23.010zM421.5 794.5c24.32 24.34 54.49 36.84 90.5 37.5 35.99-0.68 66.16-13.18 90.5-37.5s36.84-54.49 37.5-90.5h-256c0.68 35.99 13.18 66.16 37.5 90.5zM832 64h-640v576h128v-128h64v128h256v-128h64v128h128z" />
<glyph unicode="&#xe981;" glyph-name="headset" d="M896 430.848v17.152c0 212.077-171.923 384-384 384s-384-171.923-384-384v0-17.152c18.359 10.781 40.436 17.149 64 17.149 70.691 0 127.998-57.306 128-127.996v0-128c0-70.692-57.308-128-128-128s-128 57.308-128 128v0 256c0 247.424 200.576 448 448 448s448-200.576 448-448v0-256c0-70.692-57.308-128-128-128s-128 57.308-128 128v0 128c0.002 70.691 57.309 127.997 128 127.997 23.564 0 45.641-6.368 64.604-17.476l-0.604 0.327zM896 320c0 35.346-28.654 64-64 64s-64-28.654-64-64v0-128c0-35.346 28.654-64 64-64s64 28.654 64 64v0zM128 320v-128c0-35.346 28.654-64 64-64s64 28.654 64 64v0 128c0 35.346-28.654 64-64 64s-64-28.654-64-64v0z" />
<glyph unicode="&#xe982;" glyph-name="help" d="M759.936 154.752l-90.944 91.008c-42.742-33.523-97.297-53.76-156.579-53.76-0.145 0-0.291 0-0.436 0h0.023c-0.123 0-0.268 0-0.413 0-59.282 0-113.837 20.237-157.134 54.18l0.555-0.42-90.944-91.008c66.221-56.426 152.777-90.752 247.351-90.752 0.206 0 0.412 0 0.617 0h-0.032c94.528 0 181.12 34.176 247.936 90.752zM805.248 200.064c56.426 66.221 90.752 152.777 90.752 247.351 0 0.206 0 0.412 0 0.617v-0.032c0 94.528-34.176 181.12-90.752 247.936l-91.008-90.944c33.664-43.392 53.76-97.856 53.76-156.992s-20.096-113.6-53.76-156.992zM759.936 741.248c-66.221 56.426-152.777 90.752-247.351 90.752-0.206 0-0.412 0-0.617 0h0.032c-94.528 0-181.12-34.176-247.936-90.752l90.944-91.008c42.742 33.523 97.297 53.76 156.579 53.76 0.145 0 0.291 0 0.436 0h-0.023c59.136 0 113.6-20.096 156.992-53.76zM218.752 695.936c-56.426-66.221-90.752-152.777-90.752-247.351 0-0.206 0-0.412 0-0.617v0.032c0-94.528 34.176-181.12 90.752-247.936l91.008 90.944c-33.523 42.742-53.76 97.297-53.76 156.579 0 0.145 0 0.291 0 0.436v-0.023c0 59.136 20.096 113.6 53.76 156.992zM636.032 301.44c8.188 6.972 15.556 14.34 22.301 22.255l0.227 0.273c28.352 33.472 45.44 76.8 45.44 124.032 0 0.106 0 0.231 0 0.356 0 58.517-26.284 110.896-67.69 145.973l-0.279 0.23c-33.132 28.252-76.447 45.44-123.776 45.44-0.090 0-0.18 0-0.269 0h0.014c-0.106 0-0.231 0-0.356 0-58.517 0-110.896-26.284-145.973-67.69l-0.23-0.279c-28.352-33.472-45.44-76.8-45.44-124.032 0-0.106 0-0.231 0-0.356 0-58.517 26.284-110.896 67.69-145.973l0.279-0.23c33.472-28.352 76.8-45.44 124.032-45.44 47.296 0 90.56 17.088 124.032 45.44zM512 0c-247.424 0-448 200.576-448 448s200.576 448 448 448v0c247.424 0 448-200.576 448-448s-200.576-448-448-448v0z" />
<glyph unicode="&#xe983;" glyph-name="help-filled" d="M926.784 480h-225.472c-14.143 80.546-76.765 143.169-156.155 157.143l-1.157 0.169v225.472c204.526-16.273 366.51-178.257 382.691-381.326l0.093-1.458zM926.784 416c-16.273-204.526-178.257-366.51-381.326-382.691l-1.458-0.093v225.472c80.546 14.143 143.169 76.765 157.143 156.155l0.169 1.157zM97.28 416h225.472c14.135-80.529 76.728-143.144 156.090-157.143l1.158-0.169v-225.472c-204.526 16.273-366.51 178.257-382.691 381.326l-0.093 1.458zM97.28 480c16.269 204.507 178.221 366.48 381.26 382.69l1.46 0.094v-225.472c-80.546-14.143-143.169-76.765-157.143-156.155l-0.169-1.157h-225.472z" />
<glyph unicode="&#xe984;" glyph-name="hide" d="M876.8 803.2c0 9.6-3.2 16-9.6 22.4s-12.8 9.6-22.4 9.6-16-3.2-22.4-9.6l-86.4-86.4c-64 32-137.6 51.2-224 60.8-160-16-288-73.6-377.6-176s-134.4-160-134.4-176 48-73.6 134.4-176c22.4-25.6 44.8-48 73.6-67.2l-86.4-89.6c-6.4-6.4-9.6-12.8-9.6-22.4s3.2-16 9.6-22.4 12.8-9.6 22.4-9.6 16 3.2 22.4 9.6l704 710.4c3.2 6.4 6.4 12.8 6.4 22.4zM230.4 275.2q-115.2 105.6-153.6 172.8 43.2 72 153.6 172.8c73.6 67.2 169.6 108.8 281.6 115.2 64-3.2 124.8-19.2 176-44.8l-54.4-54.4c-35.2 22.4-73.6 35.2-121.6 35.2-64 0-115.2-22.4-160-64s-64-96-64-160c0-48 12.8-89.6 35.2-124.8l-67.2-70.4c-9.6 6.4-19.2 16-25.6 22.4zM371.2 371.2q-19.2 33.6-19.2 76.8c0 44.8 16 83.2 48 112s67.2 48 112 48c28.8 0 54.4-6.4 73.6-19.2zM889.599 624c-12.8 16-28.8 28.8-41.6 41.6l-48-48c73.6-67.2 124.8-124.8 150.4-169.6q-43.2-72-153.6-172.8c-73.6-67.2-172.8-108.8-284.8-115.2-51.2 3.2-99.2 12.8-140.8 28.8l-48-48c57.6-22.4 118.4-38.4 188.8-44.8 160 16 288 73.6 377.6 176s134.401 160 134.401 176-48.001 73.6-134.401 176zM511.998 288c-12.8 0-25.6 3.2-38.4 6.4l-51.2-51.2c28.8-12.8 57.6-19.2 89.6-19.2 64 0 115.2 22.4 160 64 41.6 41.6 64 96 64 160 0 32-6.4 64-19.2 89.6l-51.2-51.2c3.2-12.8 6.4-25.6 6.4-38.4 0-44.8-16-83.2-48-112s-67.2-48-112-48z" />
<glyph unicode="&#xe985;" glyph-name="histogram" d="M416 64v768h192v-768zM128 64v448h192v-448zM704 64v576h192v-576z" />
<glyph unicode="&#xe986;" glyph-name="home-filled" d="M512 832l-384-319.936v-448.064h255.936v256h256.064v-256h255.936v448.064z" />
<glyph unicode="&#xe987;" glyph-name="hot-water" d="M273.067 482.133h477.866v68.267h-477.866zM273.067 413.867v-51.2c0 0 0-0.001 0-0.001 0-103.682 84.051-187.733 187.733-187.733h102.4c103.682 0 187.733 84.051 187.733 187.733 0 0 0 0.001 0 0.001v0 51.2zM238.933 618.667h546.134c18.851 0 34.133-15.282 34.133-34.133 0 0 0-0.001 0-0.001v0-221.866c0-141.385-114.615-256-256-256v0h-102.4c-141.385 0-256 114.615-256 256v0 221.866c0 0 0 0.001 0 0.001 0 18.851 15.282 34.133 34.133 34.133v0zM512 925.867c18.851 0 34.133-15.282 34.133-34.133 0 0 0-0.001 0-0.001v0-170.666c0-18.851-15.282-34.133-34.133-34.133s-34.133 15.282-34.133 34.133v0 170.666c0 0 0 0.001 0 0.001 0 18.851 15.282 34.133 34.133 34.133v0zM375.467 857.6c18.851 0 34.133-15.282 34.133-34.133v0-102.4c0-18.851-15.282-34.133-34.133-34.133s-34.134 15.282-34.134 34.133v0 102.4c0 18.851 15.282 34.133 34.133 34.133 0 0 0.001 0 0.001 0v0zM648.533 857.6c0 0 0.001 0 0.001 0 18.851 0 34.133-15.282 34.133-34.133v-102.4c0-18.851-15.282-34.133-34.134-34.133s-34.134 15.282-34.134 34.133v0 102.4c0 18.851 15.282 34.133 34.133 34.133v0zM170.667 38.332h682.666c18.851 0 34.134-15.282 34.134-34.134s-15.282-34.133-34.133-34.133h-682.666c-18.851 0-34.134 15.282-34.134 34.134s15.282 34.134 34.134 34.134v0z" />
<glyph unicode="&#xe988;" glyph-name="house" d="M192 546.048v-482.048h640v482.048l-320 266.624zM139.52 585.6l352 293.312c5.506 4.611 12.666 7.412 20.48 7.412s14.974-2.801 20.53-7.453l-0.050 0.041 352-293.312c7.058-5.908 11.516-14.721 11.52-24.575v-529.025c0-17.673-14.327-32-32-32v0h-704c-17.673 0-32 14.327-32 32v0 529.024c0.004 9.855 4.462 18.668 11.47 24.535l0.050 0.041z" />
<glyph unicode="&#xe989;" glyph-name="ice-cream" d="M128.64 512c8.179 103.012 90.306 184.455 192.889 191.516l0.647 0.036c15.881 109.524 109.127 192.721 221.805 192.721 118.155 0 214.943-91.481 223.4-207.478l0.043-0.73c70.918-30.151 121.044-96.565 127.313-175.335l0.047-0.729h1.216l-347.2-535.68c-5.791-8.843-15.652-14.604-26.859-14.604-10.909 0-20.543 5.459-26.32 13.794l-0.069 0.106-367.552 536.384zM192.896 512h286.208c-8.342 72.327-69.226 127.961-143.104 127.961s-134.762-55.634-143.041-127.293l-0.063-0.668zM544.256 512h286.272c-8.206 72.461-69.156 128.249-143.136 128.249s-134.93-55.788-143.075-127.59l-0.061-0.66zM249.408 448l271.808-396.608 257.024 396.608zM511.68 607.36c37.451 58.452 102.069 96.636 175.604 96.636 4.778 0 9.518-0.161 14.216-0.478l-0.636 0.034c-15.222 73.784-79.656 128.468-156.862 128.468-79.219 0-144.991-57.572-157.758-133.159l-0.131-0.941c52.608-12.992 97.28-46.080 125.568-90.56z" />
<glyph unicode="&#xe98a;" glyph-name="ice-cream-round" d="M308.352 470.656l226.304-226.304c5.791-5.789 13.789-9.369 22.624-9.369s16.833 3.58 22.624 9.369l203.648 203.648c34.748 34.748 56.24 82.752 56.24 135.776 0 106.048-85.969 192.016-192.016 192.016-53.024 0-101.028-21.492-135.776-56.24v0l-203.648-203.712c-5.789-5.791-9.369-13.789-9.369-22.624s3.58-16.833 9.369-22.624v0zM444.096 244.352l-135.744-135.744c-17.246-16.673-40.769-26.948-66.692-26.948-53.019 0-96 42.981-96 96 0 25.923 10.275 49.446 26.974 66.719l-0.026-0.027 135.744 135.744-45.248 45.248c-17.386 17.375-28.14 41.383-28.14 67.904s10.754 50.529 28.139 67.903l203.649 203.649c46.328 46.328 110.33 74.983 181.024 74.983 141.389 0 256.007-114.618 256.007-256.007 0-70.694-28.655-134.696-74.983-181.024v0l-203.648-203.712c-17.375-17.386-41.383-28.14-67.904-28.14s-50.529 10.754-67.903 28.139l-45.249 45.249zM398.848 289.6l-45.248 45.248-135.744-135.744c-5.558-5.749-8.983-13.59-8.983-22.231 0-17.673 14.327-32 32-32 8.641 0 16.482 3.425 22.24 8.991l-0.009-0.009zM647.808 674.24c5.789-5.791 9.369-13.789 9.369-22.624s-3.58-16.833-9.369-22.624v0l-181.184-180.992c-5.866-6.35-14.235-10.312-23.53-10.312-17.673 0-32 14.327-32 32 0 9.311 3.976 17.692 10.323 23.54l0.022 0.020 180.992 181.056c5.791 5.789 13.789 9.369 22.624 9.369s16.833-3.58 22.624-9.369v0zM738.304 583.744c5.789-5.791 9.369-13.789 9.369-22.624s-3.58-16.833-9.369-22.624l-181.056-180.992c-5.827-6.027-13.985-9.769-23.017-9.769-17.673 0-32 14.327-32 32 0 9.032 3.742 17.19 9.76 23.009l181.001 181.001c5.794 5.808 13.805 9.401 22.656 9.401s16.862-3.593 22.655-9.401l0.001-0.001z" />
<glyph unicode="&#xe98b;" glyph-name="ice-cream-square" d="M416 320h256c17.673 0 32 14.327 32 32v0 448c0 17.673-14.327 32-32 32v0h-320c-17.673 0-32-14.327-32-32v0-448c0-17.673 14.327-32 32-32v0zM608 256v-160c0-53.019-42.981-96-96-96s-96 42.981-96 96v0 160h-64c-53.019 0-96 42.981-96 96v0 448c0 53.019 42.981 96 96 96v0h320c53.019 0 96-42.981 96-96v0-448c0-53.019-42.981-96-96-96v0zM544 256h-64v-160c0-17.673 14.327-32 32-32s32 14.327 32 32v0z" />
<glyph unicode="&#xe98c;" glyph-name="ice-drink" d="M512 512v-128h239.68l16.064 128zM448 512h-191.744l16.064-128h175.68zM512 767.36v-191.36h247.744c-29.707 110.957-129.335 191.331-247.741 191.36h-0.003zM448 759.296c-90.069-23.902-159.626-93.31-183.334-181.502l-0.41-1.794h183.744zM512 831.36c153.856-0.019 282.354-108.572 313.099-253.266l0.373-2.094h70.528c17.673 0 32-14.327 32-32s-14.327-32-32-32v0h-64v-1.92l-56.96-454.016c-4.083-31.76-30.947-56.055-63.487-56.064h-399.105c-32.541 0.009-59.405 24.304-63.454 55.744l-0.034 0.32-56.96 454.016v1.92h-64c-17.673 0-32 14.327-32 32s14.327 32 32 32v0h70.528c26.628 125.48 123.908 222.588 247.384 248.592l2.088 0.368v39.040c0 53.019 42.981 96 96 96v0h128c17.673 0 32-14.327 32-32s-14.327-32-32-32v0h-128c-17.673 0-32-14.327-32-32v0zM743.68 320h-463.36l32.128-256h399.104z" />
<glyph unicode="&#xe98d;" glyph-name="ice-tea" d="M197.696 700.352c29.534 148.759 159.005 259.342 314.304 259.342s284.77-110.584 313.966-257.303l0.338-2.039c40.562-11.828 69.696-48.675 69.696-92.326 0-0.009 0-0.018 0-0.027v0.001-64c0-0.004 0-0.008 0-0.012 0-44.351-30.076-81.678-70.944-92.697l-0.672-0.154-49.408-395.072c-4.083-31.76-30.947-56.055-63.487-56.064h-398.977c-32.541 0.009-59.405 24.304-63.454 55.744l-0.034 0.32-49.408 395.072c-41.54 11.174-71.616 48.501-71.616 92.852 0 0.004 0 0.009 0 0.013v-0.001 64c0 0.008 0 0.017 0 0.026 0 43.651 29.134 80.498 69.017 92.156l0.679 0.17zM264.064 704h495.872c-29.533 111.234-129.318 191.868-247.936 191.868s-218.403-80.635-247.531-190.080l-0.405-1.788zM759.488 448h-494.976l48-384h398.976zM224 512h576c17.673 0 32 14.327 32 32v0 64c0 17.673-14.327 32-32 32v0h-576c-17.673 0-32-14.327-32-32v0-64c0-17.673 14.327-32 32-32v0zM384 320h64v-64h-64zM576 256h64v-64h-64zM448 192h64v-64h-64zM512 384h64v-64h-64z" />
<glyph unicode="&#xe98e;" glyph-name="info-filled" d="M512 896c247.441 0 448.032-200.591 448.032-448.032s-200.591-448.032-448.032-448.032v0c-247.441 0-448.032 200.591-448.032 448.032s200.591 448.032 448.032 448.032v0zM579.2 620.928c33.28 0 60.288 23.104 60.288 57.344s-27.072 57.344-60.288 57.344c-33.28 0-60.16-23.104-60.16-57.344s26.88-57.344 60.16-57.344zM590.912 260.8c0 6.848 2.368 24.64 1.024 34.752l-52.608-60.544c-10.88-11.456-24.512-19.392-30.912-17.28-5.006 1.88-8.505 6.627-8.505 12.191 0 0.895 0.090 1.769 0.263 2.613l-0.014-0.084 87.68 276.992c7.168 35.136-12.544 67.2-54.336 71.296-44.096 0-108.992-44.736-148.48-101.504 0-6.784-1.28-23.68 0.064-33.792l52.544 60.608c10.88 11.328 23.552 19.328 29.952 17.152 4.984-1.826 8.476-6.529 8.476-12.047 0-1.46-0.244-2.863-0.695-4.171l0.027 0.090-86.912-275.648c-10.048-32.256 8.96-63.872 55.040-71.040 67.84 0 107.904 43.648 147.456 100.416z" />
<glyph unicode="&#xe98f;" glyph-name="iphone" d="M224 192v-96.064c0-35.346 28.654-64 64-64v0h448c35.346 0 64 28.654 64 64v0 96.064zM224 256h576v544c0 35.346-28.654 64-64 64v0h-448c-35.346 0-64-28.654-64-64v0zM256-32c-53.019 0-96 42.981-96 96v0 768c0 53.019 42.981 96 96 96v0h512c53.019 0 96-42.981 96-96v0-768c0-53.019-42.981-96-96-96v0zM560 112c0-26.51-21.49-48-48-48s-48 21.49-48 48v0c0 26.51 21.49 48 48 48s48-21.49 48-48v0z" />
<glyph unicode="&#xe990;" glyph-name="key" d="M448 503.936v360.064c0 0.019 0 0.041 0 0.064 0 17.673 14.327 32 32 32 0 0 0 0 0 0l192-0.064c17.673 0 32-14.327 32-32s-14.327-32-32-32v0h-160v-128h160c17.673 0 32-14.327 32-32s-14.327-32-32-32v0h-160v-128c141.276-0.144 255.748-114.704 255.748-256 0-141.385-114.615-256-256-256s-256 114.615-256 256c0 118.733 80.831 218.587 190.467 247.535l1.785 0.401zM512 64c106.039 0 192 85.961 192 192s-85.961 192-192 192v0c-106.039 0-192-85.961-192-192s85.961-192 192-192v0z" />
<glyph unicode="&#xe991;" glyph-name="knife-fork" d="M256 549.44v314.56c0 17.673 14.327 32 32 32s32-14.327 32-32v0-314.56c37.605 13.577 64 48.961 64 90.51 0 0.018 0 0.035 0 0.053v-0.003 224c0 17.673 14.327 32 32 32s32-14.327 32-32v0-224c0-0.010 0-0.021 0-0.033 0-77.038-54.446-141.36-126.958-156.584l-1.042-0.183v-451.2c0-17.673-14.327-32-32-32s-32 14.327-32 32v0 451.2c-73.554 15.408-128 79.729-128 156.767 0 0.011 0 0.023 0 0.034v-0.002 224c0 17.673 14.327 32 32 32s32-14.327 32-32v0-224c0-0.015 0-0.033 0-0.050 0-41.549 26.395-76.933 63.332-90.298l0.668-0.211zM640 799.68v-383.68h126.72c-3.328 78.72-12.928 147.968-28.608 207.744-14.336 54.528-46.848 113.344-98.112 175.872zM640 352v-320c0-17.673-14.327-32-32-32s-32 14.327-32 32v0 864h64c85.312-89.472 138.688-174.848 160-256s32-177.152 32-288z" />
<glyph unicode="&#xe992;" glyph-name="lightning" d="M288 288.64v-64.128c-125.576 8.41-224.251 112.329-224.256 239.295v0.001c0.013 118.288 85.485 216.609 198.038 236.587l1.45 0.213c28.328 112.934 128.945 195.239 248.785 195.239 108.42 0 201.107-67.366 238.485-162.524l0.602-1.739c119.497-23.202 208.481-127.012 208.481-251.604 0-129.97-96.831-237.324-222.287-253.856l-1.298-0.14v64.768c91.232 16.007 159.675 94.64 159.675 189.259 0 93.43-66.734 171.274-155.137 188.465l-1.21 0.196-35.2 6.592-12.8 33.408c-28.436 72.752-97.985 123.349-179.351 123.349-89.929 0-165.423-61.806-186.32-145.257l-0.281-1.324-9.92-40.896-41.472-7.040c-83.534-14.856-146.155-86.887-146.24-173.559v-0.009c0-91.968 70.464-167.36 160.256-175.232zM416 224c-17.669 0.006-31.99 14.331-31.99 32 0 5.839 1.564 11.313 4.296 16.026l-0.082-0.154 128 224c5.523 10.071 16.053 16.785 28.152 16.785 17.673 0 32-14.327 32-32 0-6.107-1.711-11.815-4.679-16.67l-100.528-175.988h136.832c17.669-0.006 31.99-14.331 31.99-32 0-5.839-1.564-11.313-4.296-16.026l0.082 0.154-128-224c-5.624-9.731-15.979-16.175-27.84-16.175-17.699 0-32.047 14.348-32.047 32.047 0 5.838 1.561 11.312 4.289 16.026l-0.082-0.154 100.864 176.128z" />
<glyph unicode="&#xe993;" glyph-name="link" d="M715.648 334.848l-45.248 45.248 90.496 90.56c75.008 74.944 85.12 186.368 22.656 248.896-62.528 62.464-173.952 52.352-248.96-22.656l-90.432-90.496-45.248 45.248 90.496 90.496c100.032 99.968 251.968 110.080 339.456 22.656 87.488-87.488 77.312-239.424-22.656-339.456l-90.496-90.496zM625.152 244.352l-90.496-90.496c-100.032-99.968-251.968-110.080-339.456-22.656-87.488 87.488-77.312 239.424 22.656 339.456l90.496 90.496 45.248-45.248-90.496-90.56c-75.008-74.944-85.12-186.368-22.656-248.896 62.528-62.464 173.952-52.352 248.96 22.656l90.496 90.496zM625.152 606.4l45.248-45.248-271.552-271.552-45.248 45.248z" />
</font>
</defs>
</svg>
